(R\'n\'B) [WEB] Col3trane - BOOT - 2018, FLAC (tracks), lossless

Reply to topic
DL-List and Torrent activity [Update пиров]
Size:  119 MB   |    Registered:  1 year   |    Completed:  0 times

Seeder not seen: Never

 
   
 
 
 
Author Message

Mr_Fox

Post 04-Nov-2018 22:46

[Quote]



Col3trane

BOOT





• Жанр: R'n'B
• Носитель: WEB
• Год издания: 2018
• Издатель: Cole Basta/Tap Records
• Аудиокодек: FLAC (*.flac)
• Тип рипа: tracks
• Продолжительность: 00:19:26
• Источник (спасибо): NBMus
• WEB ссылка
• Наличие сканов: front

01 - Fear And Loathing (00:01:32)
02 - Britney (00:03:26)
03 - Roses (00:03:22)
04 - Chemicals (00:02:57)
05 - Resume (00:02:48)
06 - Movie Star (00:02:53)
07 - Tyler (00:02:25)

-
-

• Замер динамического диапазона •

foobar2000 1.3.9 / Замер динамического диапазона (DR) 1.1.1Дата отчёта: 2018-10-22 15:23:40
--------------------------------------------------------------------------------Анализ: Col3trane / BOOT--------------------------------------------------------------------------------
DR Пики RMS Продолжительность трека--------------------------------------------------------------------------------DR7 0.00 дБ -11.02 дБ 1:32 01-Fear and LoathingDR5 0.00 дБ -7.25 дБ 3:26 02-BritneyDR7 0.00 дБ -9.53 дБ 3:22 03-RosesDR5 0.00 дБ -7.54 дБ 2:58 04-ChemicalsDR7 0.00 дБ -9.40 дБ 2:49 05-ResumeDR5 0.00 дБ -7.61 дБ 2:53 06-Movie StarDR7 0.00 дБ -8.42 дБ 2:26 07-Tyler--------------------------------------------------------------------------------
Количество треков: 7Реальные значения DR: DR6
Частота: 44100 ГцКаналов: 2Разрядность: 16Битрейт: 855 кбит/сКодек: FLAC================================================================================
-

• Лог проверки качества •

-----------------------
DON'T MODIFY THIS FILE
-----------------------
PERFORMER: auCDtect Task Manager, ver. 1.5.1RC3 build 1.5.1.4Copyright (c) 2008-2010 y-soft. All rights reservedhttp://y-soft.org
ANALYZER: auCDtect: CD records authenticity detector, version 0.8.2Copyright (c) 2004 Oleg Berngardt. All rights reserved.Copyright (c) 2004 Alexander Djourik. All rights reserved.
FILE: Col3trane-07.flac Size: 15616918 Hash: 0070E6C6DB0D40A9E43A811BD15D8331 Accuracy: -m0 Conclusion: CDDA 100% Signature: 85B1A1452CB8DE7BB1A78E871432F47A7D321DF5FILE: Col3trane-06.flac Size: 18859614 Hash: 05C99B9F4C70C73F6FE000E8D4632AB0 Accuracy: -m0 Conclusion: CDDA 100% Signature: C4AB34029158F2A4A5BECE4012D4BCBFF3B7DDDAFILE: Col3trane-05.flac Size: 18978196 Hash: 83D6E599744AD885B8E3A6C6668C94FB Accuracy: -m0 Conclusion: CDDA 100% Signature: 2268D111598B3F9A0768E97EF9D64906931881F5FILE: Col3trane-04.flac Size: 19388269 Hash: 92C4857DC88751C49F8675B066C20867 Accuracy: -m0 Conclusion: CDDA 100% Signature: 26DD7650FBB838786C3E610042DA812DA1524D1DFILE: Col3trane-03.flac Size: 21067201 Hash: 02784C98B9AB466A87A3E02C1CCF45F0 Accuracy: -m0 Conclusion: CDDA 100% Signature: 5E01BEA04242456B0CEDDE8A1BBA65F7FC404E49FILE: Col3trane-02.flac Size: 22580029 Hash: 35C12509D78D16A62BA70CB5D7CA1EF2 Accuracy: -m0 Conclusion: CDDA 100% Signature: 9FE2F0AD2DA3DAA4411EA4F488F0F2D522D840A2FILE: Col3trane-01.flac Size: 7802408 Hash: EF5F531E55F78562742D641BA90369DF Accuracy: -m0 Conclusion: CDDA 100% Signature: E65915B08AE673D88583F3FBEC4E56514103C01C
-


[geo-torrent.biz]_t_5634235.torrent
Torrent: Registered ·  [ 2018-11-04 22:44 ] ·  db29d9c32208d0e635a9da446b69cf5cc9a20bb6

19 KB

Status: checked
Completed: 0 times
Size: 119 MB
Rating: 
(Votes: 0)
Say thanks: 0  Thanks
[Profile]    [PM]
Display posts from previous:    
Reply to topic

The time now is: Today 02:24

All times are GMT + 7 Hours



You cannot post new topics in this forum
You cannot reply to topics in this forum
You cannot edit your posts in this forum
You cannot delete your posts in this forum
You cannot vote in polls in this forum
You cannot attach files in this forum
You can download files in this forum