(Rap) [CD] Многоточие - Коллекция (2 альбома) - 2018-2018, ALAC (tracks+.cue), lossless

Reply to topic
DL-List and Torrent activity [Update пиров]
Size:  791 MB   |    Registered:  1 year 2 months   |    Completed:  0 times

Seeder not seen: Never

 
   
 
 
 
Author Message

Mr_Fox

Post 29-Jan-2019 20:15

[Quote]

Многоточие / Коллекция
Жанр: Rap
Носитель: CD
Страна-производитель диска: Россия
Годы издания: 2018-2018
Издатель (лейбл): DOTS Family Records
Страна исполнителя (группы): Россия
Аудио кодек: ALAC (*.m4a)
Тип рипа: tracks+.cue
Программа-конвертер: Собственный рип (EAC)
Битрейт аудио: lossless
Наличие сканов в содержимом раздачи: да
Тексты: вшиты частично (только для треков "Учиться любить" и "Зима" есть текст; для альбома "Лучшие песни за 20 лет" есть все текста)
Источник : Собственные диски

2018 - Лучшие песни за 20 лет (01:13:42)

Треклист:
01. Оглянись
02. Глупо было бы
03. Что стоит?
04. Счастье ft. White Hot Ice
05. Нас
06. В моём городе
07. Кричит!
08. Дай огня!
09. В моих глазах ft. White Hot Ice
10. От тебя
11. Жизнь и свобода
12. Зачем я нужен тебе? ft. Окна
13. Щемит в душе тоска ft. БикМак
14. Откровения
15. В жизни так бывает
16. Последняя встреча
17. Синий дым
18. Белые друзья
19. Музыка
20. Мы

Лог создания рипа

Exact Audio Copy V1.3 from 2. September 2016
Отчёт EAC об извлечении, выполненном 15. января 2019, 15:27
Многоточие / Лучшие песни за 20 лет
Дисковод: HL-DT-STDVDRAM GP60NB50 Adapter: 1 ID: 0
Режим чтения : ДостоверностьИспользование точного потока : ДаОтключение кэша аудио : ДаИспользование указателей C2 : Нет
Коррекция смещения при чтении : 6Способность читать области Lead-in и Lead-out : НетЗаполнение пропущенных сэмплов тишиной : ДаУдаление блоков с тишиной в начале и конце : НетПри вычислениях CRC использовались нулевые сэмплы : ДаИнтерфейс : Встроенный Win32-интерфейс для Win NT/2000Обработка зазоров : Добавлено к предыдущему треку
Выходной формат : Пользовательский кодировщикВыбранный битрейт : 128 kBit/sКачество : ВысокийДобавление ID3-тега : НетУтилита сжатия : C:\Users\Антон\Downloads\qaac_2.66\qaac_2.66\x64\refalac64.exeДополнительные параметры : -s --ignorelength --artist "%artist%" --title "%title%" --album "%albumtitle%" --date "%year%" --track "%tracknr%" --genre "%genre%" -o %dest% %source%
TOC извлечённого CD
Трек | Старт | Длительность | Начальный сектор | Конечный сектор --------------------------------------------------------------------- 1 | 0:00.00 | 3:09.43 | 0 | 14217 2 | 3:09.43 | 3:54.29 | 14218 | 31796 3 | 7:03.72 | 4:04.00 | 31797 | 50096 4 | 11:07.72 | 3:05.51 | 50097 | 64022 5 | 14:13.48 | 2:50.55 | 64023 | 76827 6 | 17:04.28 | 3:52.03 | 76828 | 94230 7 | 20:56.31 | 3:29.59 | 94231 | 109964 8 | 24:26.15 | 4:14.01 | 109965 | 129015 9 | 28:40.16 | 3:37.73 | 129016 | 145363 10 | 32:18.14 | 2:15.63 | 145364 | 155551 11 | 34:34.02 | 4:12.43 | 155552 | 174494 12 | 38:46.45 | 3:15.04 | 174495 | 189123 13 | 42:01.49 | 3:32.19 | 189124 | 205042 14 | 45:33.68 | 3:55.73 | 205043 | 222740 15 | 49:29.66 | 4:29.22 | 222741 | 242937 16 | 53:59.13 | 2:30.23 | 242938 | 254210 17 | 56:29.36 | 3:47.31 | 254211 | 271266 18 | 60:16.67 | 3:30.28 | 271267 | 287044 19 | 63:47.20 | 5:35.50 | 287045 | 312219 20 | 69:22.70 | 4:18.63 | 312220 | 331632
Трек 1
Имя файла C:\Users\Антон\Downloads\Музыка\Многоточие\2018 - Лучшие песни за 20 лет\01 Оглянись.wav
Длина предзазора 0:00:02.00
Пиковый уровень 100.0 % Скорость извлечения 2.4 X Качество трека 99.9 % CRC теста 5A0B5B1D CRC копии 5A0B5B1D Трек не обнаружен в базе AccurateRip Копирование... OK
Трек 2
Имя файла C:\Users\Антон\Downloads\Музыка\Многоточие\2018 - Лучшие песни за 20 лет\02 Глупо было бы.wav
Пиковый уровень 68.8 % Скорость извлечения 2.8 X Качество трека 99.9 % CRC теста 4A3DE7D0 CRC копии 4A3DE7D0 Трек не обнаружен в базе AccurateRip Копирование... OK
Трек 3
Имя файла C:\Users\Антон\Downloads\Музыка\Многоточие\2018 - Лучшие песни за 20 лет\03 Что стоит.wav
Пиковый уровень 100.0 % Скорость извлечения 3.0 X Качество трека 99.9 % CRC теста 4C0BE767 CRC копии 4C0BE767 Трек не обнаружен в базе AccurateRip Копирование... OK
Трек 4
Имя файла C:\Users\Антон\Downloads\Музыка\Многоточие\2018 - Лучшие песни за 20 лет\04 Счастье ft. White Hot Ice.wav
Пиковый уровень 95.7 % Скорость извлечения 3.5 X Качество трека 100.0 % CRC теста C6E23E84 CRC копии C6E23E84 Трек не обнаружен в базе AccurateRip Копирование... OK
Трек 5
Имя файла C:\Users\Антон\Downloads\Музыка\Многоточие\2018 - Лучшие песни за 20 лет\05 Нас.wav
Пиковый уровень 100.0 % Скорость извлечения 3.6 X Качество трека 100.0 % CRC теста D4C306EE CRC копии D4C306EE Трек не обнаружен в базе AccurateRip Копирование... OK
Трек 6
Имя файла C:\Users\Антон\Downloads\Музыка\Многоточие\2018 - Лучшие песни за 20 лет\06 В моём городе.wav
Пиковый уровень 94.6 % Скорость извлечения 1.9 X Качество трека 99.9 % CRC теста 50A3ACD8 CRC копии 50A3ACD8 Трек не обнаружен в базе AccurateRip Копирование... OK
Трек 7
Имя файла C:\Users\Антон\Downloads\Музыка\Многоточие\2018 - Лучшие песни за 20 лет\07 Кричит!.wav
Пиковый уровень 98.9 % Скорость извлечения 1.5 X Качество трека 99.9 % CRC теста D8D4724A CRC копии D8D4724A Трек не обнаружен в базе AccurateRip Копирование... OK
Трек 8
Имя файла C:\Users\Антон\Downloads\Музыка\Многоточие\2018 - Лучшие песни за 20 лет\08 Дай огня!.wav
Пиковый уровень 95.0 % Скорость извлечения 4.4 X Качество трека 100.0 % CRC теста 09C6FBC1 CRC копии 09C6FBC1 Трек не обнаружен в базе AccurateRip Копирование... OK
Трек 9
Имя файла C:\Users\Антон\Downloads\Музыка\Многоточие\2018 - Лучшие песни за 20 лет\09 В моих глазах ft. White Hot Ice.wav
Пиковый уровень 100.0 % Скорость извлечения 2.0 X Качество трека 100.0 % CRC теста 35DBFFB7 CRC копии 35DBFFB7 Трек не обнаружен в базе AccurateRip Копирование... OK
Трек 10
Имя файла C:\Users\Антон\Downloads\Музыка\Многоточие\2018 - Лучшие песни за 20 лет\10 От тебя.wav
Пиковый уровень 95.4 % Скорость извлечения 1.8 X Качество трека 100.0 % CRC теста D33A8A5A CRC копии D33A8A5A Трек не обнаружен в базе AccurateRip Копирование... OK
Трек 11
Имя файла C:\Users\Антон\Downloads\Музыка\Многоточие\2018 - Лучшие песни за 20 лет\11 Жизнь и свобода.wav
Пиковый уровень 100.0 % Скорость извлечения 2.1 X Качество трека 100.0 % CRC теста 83E2519A CRC копии 83E2519A Трек не обнаружен в базе AccurateRip Копирование... OK
Трек 12
Имя файла C:\Users\Антон\Downloads\Музыка\Многоточие\2018 - Лучшие песни за 20 лет\12 Зачем я нужен тебе ft. Окна.wav
Пиковый уровень 100.0 % Скорость извлечения 2.1 X Качество трека 100.0 % CRC теста 8636BE9E CRC копии 8636BE9E Трек не обнаружен в базе AccurateRip Копирование... OK
Трек 13
Имя файла C:\Users\Антон\Downloads\Музыка\Многоточие\2018 - Лучшие песни за 20 лет\13 Щемит в душе тоска ft. БикМак.wav
Пиковый уровень 100.0 % Скорость извлечения 2.2 X Качество трека 100.0 % CRC теста 8A0E4E3F CRC копии 8A0E4E3F Трек не обнаружен в базе AccurateRip Копирование... OK
Трек 14
Имя файла C:\Users\Антон\Downloads\Музыка\Многоточие\2018 - Лучшие песни за 20 лет\14 Откровения.wav
Пиковый уровень 100.0 % Скорость извлечения 2.3 X Качество трека 100.0 % CRC теста 11DEF97F CRC копии 11DEF97F Трек не обнаружен в базе AccurateRip Копирование... OK
Трек 15
Имя файла C:\Users\Антон\Downloads\Музыка\Многоточие\2018 - Лучшие песни за 20 лет\15 В жизни так бывает.wav
Пиковый уровень 100.0 % Скорость извлечения 2.4 X Качество трека 100.0 % CRC теста 7110D5A2 CRC копии 7110D5A2 Трек не обнаружен в базе AccurateRip Копирование... OK
Трек 16
Имя файла C:\Users\Антон\Downloads\Музыка\Многоточие\2018 - Лучшие песни за 20 лет\16 Последняя встреча.wav
Пиковый уровень 99.6 % Скорость извлечения 2.2 X Качество трека 100.0 % CRC теста 97D9848A CRC копии 97D9848A Трек не обнаружен в базе AccurateRip Копирование... OK
Трек 17
Имя файла C:\Users\Антон\Downloads\Музыка\Многоточие\2018 - Лучшие песни за 20 лет\17 Синий дым.wav
Пиковый уровень 97.9 % Скорость извлечения 2.1 X Качество трека 99.9 % CRC теста 6436B9B0 CRC копии 6436B9B0 Трек не обнаружен в базе AccurateRip Копирование... OK
Трек 18
Имя файла C:\Users\Антон\Downloads\Музыка\Многоточие\2018 - Лучшие песни за 20 лет\18 Белые друзья.wav
Пиковый уровень 100.0 % Скорость извлечения 2.4 X Качество трека 100.0 % CRC теста 2A67EA62 CRC копии 2A67EA62 Трек не обнаружен в базе AccurateRip Копирование... OK
Трек 19
Имя файла C:\Users\Антон\Downloads\Музыка\Многоточие\2018 - Лучшие песни за 20 лет\19 Музыка.wav
Пиковый уровень 100.0 % Скорость извлечения 2.4 X Качество трека 99.9 % CRC теста 868D0BD4 CRC копии 868D0BD4 Трек не обнаружен в базе AccurateRip Копирование... OK
Трек 20
Имя файла C:\Users\Антон\Downloads\Музыка\Многоточие\2018 - Лучшие песни за 20 лет\20 Мы.wav
Пиковый уровень 98.8 % Скорость извлечения 2.7 X Качество трека 100.0 % CRC теста 1606C906 CRC копии 1606C906 Трек не обнаружен в базе AccurateRip Копирование... OK
Ни одного трека нет в базе AccurateRip
Ошибок не произошло
Конец отчёта
---- CUETools DB Plugin V2.1.6
[CTDB TOCID: y8T5xwiK6.0FZrUAMYHlIKJzSSw-] disk not present in databaseSubmit result: y8T5xwiK6.0FZrUAMYHlIKJzSSw- has been uploaded
==== Контрольная сумма отчёта A77484E8AFDD133D72CF0C3BCCAB566A1BA381850F6B342C63EC3524F39B3590 ====

Содержание индексной карты (.CUE)

REM GENRE RapREM DATE 2018REM DISCID 25114514REM COMMENT "ExactAudioCopy v1.3"PERFORMER "Многоточие"TITLE "Лучшие песни за 20 лет"REM COMPOSER ""FILE "01 Оглянись.wav" WAVE TRACK 01 AUDIO TITLE "Оглянись" PERFORMER "Многоточие" REM COMPOSER "" INDEX 01 00:00:00FILE "02 Глупо было бы.wav" WAVE TRACK 02 AUDIO TITLE "Глупо было бы" PERFORMER "Многоточие" REM COMPOSER "" INDEX 01 00:00:00FILE "03 Что стоит.wav" WAVE TRACK 03 AUDIO TITLE "Что стоит?" PERFORMER "Многоточие" REM COMPOSER "" INDEX 01 00:00:00FILE "04 Счастье ft. White Hot Ice.wav" WAVE TRACK 04 AUDIO TITLE "Счастье ft. White Hot Ice" PERFORMER "Многоточие" REM COMPOSER "" INDEX 01 00:00:00FILE "05 Нас.wav" WAVE TRACK 05 AUDIO TITLE "Нас" PERFORMER "Многоточие" REM COMPOSER "" INDEX 01 00:00:00FILE "06 В моём городе.wav" WAVE TRACK 06 AUDIO TITLE "В моём городе" PERFORMER "Многоточие" REM COMPOSER "" INDEX 01 00:00:00FILE "07 Кричит!.wav" WAVE TRACK 07 AUDIO TITLE "Кричит!" PERFORMER "Многоточие" REM COMPOSER "" INDEX 01 00:00:00FILE "08 Дай огня!.wav" WAVE TRACK 08 AUDIO TITLE "Дай огня!" PERFORMER "Многоточие" REM COMPOSER "" INDEX 01 00:00:00FILE "09 В моих глазах ft. White Hot Ice.wav" WAVE TRACK 09 AUDIO TITLE "В моих глазах ft. White Hot Ice" PERFORMER "Многоточие" REM COMPOSER "" INDEX 01 00:00:00FILE "10 От тебя.wav" WAVE TRACK 10 AUDIO TITLE "От тебя" PERFORMER "Многоточие" REM COMPOSER "" INDEX 01 00:00:00FILE "11 Жизнь и свобода.wav" WAVE TRACK 11 AUDIO TITLE "Жизнь и свобода" PERFORMER "Многоточие" REM COMPOSER "" INDEX 01 00:00:00FILE "12 Зачем я нужен тебе ft. Окна.wav" WAVE TRACK 12 AUDIO TITLE "Зачем я нужен тебе? ft. Окна" PERFORMER "Многоточие" REM COMPOSER "" INDEX 01 00:00:00FILE "13 Щемит в душе тоска ft. БикМак.wav" WAVE TRACK 13 AUDIO TITLE "Щемит в душе тоска ft. БикМак" PERFORMER "Многоточие" REM COMPOSER "" INDEX 01 00:00:00FILE "14 Откровения.wav" WAVE TRACK 14 AUDIO TITLE "Откровения" PERFORMER "Многоточие" REM COMPOSER "" INDEX 01 00:00:00FILE "15 В жизни так бывает.wav" WAVE TRACK 15 AUDIO TITLE "В жизни так бывает" PERFORMER "Многоточие" REM COMPOSER "" INDEX 01 00:00:00FILE "16 Последняя встреча.wav" WAVE TRACK 16 AUDIO TITLE "Последняя встреча" PERFORMER "Многоточие" REM COMPOSER "" INDEX 01 00:00:00FILE "17 Синий дым.wav" WAVE TRACK 17 AUDIO TITLE "Синий дым" PERFORMER "Многоточие" REM COMPOSER "" INDEX 01 00:00:00FILE "18 Белые друзья.wav" WAVE TRACK 18 AUDIO TITLE "Белые друзья" PERFORMER "Многоточие" REM COMPOSER "" INDEX 01 00:00:00FILE "19 Музыка.wav" WAVE TRACK 19 AUDIO TITLE "Музыка" PERFORMER "Многоточие" REM COMPOSER "" INDEX 01 00:00:00FILE "20 Мы.wav" WAVE TRACK 20 AUDIO TITLE "Мы" PERFORMER "Многоточие" REM COMPOSER "" INDEX 01 00:00:00

Лог проверки качества

CUE Corrector v. 8.3.5 / b. 900 (Jan. 08, 2019)————————————————————————————————————————————————————————————————————————--- / Лучшие песни за 20 лет
Folder: 2018 - Лучшие песни за 20 летAudio files: 01 Оглянись.m4a [03:09.573; ALAC • 839 kbps • 16 bit \ 44100 Hz • stereo; 18.98 MB (19 900 515 B)] 02 Глупо было бы.m4a [03:54.387; ALAC • 827 kbps • 16 bit \ 44100 Hz • stereo; 23.14 MB (24 265 677 B)] 03 Что стоит.m4a [04:04.000; ALAC • 752 kbps • 16 bit \ 44100 Hz • stereo; 21.89 MB (22 957 206 B)] 04 Счастье ft. White Hot Ice.m4a [03:05.680; ALAC • 876 kbps • 16 bit \ 44100 Hz • stereo; 19.42 MB (20 364 358 B)] 05 Нас.m4a [02:50.733; ALAC • 885 kbps • 16 bit \ 44100 Hz • stereo; 18.03 MB (18 905 546 B)] 06 В моём городе.m4a [03:52.040; ALAC • 844 kbps • 16 bit \ 44100 Hz • stereo; 23.37 MB (24 507 101 B)] 07 Кричит!.m4a [03:29.787; ALAC • 861 kbps • 16 bit \ 44100 Hz • stereo; 21.55 MB (22 600 265 B)] 08 Дай огня!.m4a [04:14.013; ALAC • 979 kbps • 16 bit \ 44100 Hz • stereo; 29.69 MB (31 127 200 B)] 09 В моих глазах ft. White Hot Ice.m4a [03:37.973; ALAC • 852 kbps • 16 bit \ 44100 Hz • stereo; 22.17 MB (23 242 157 B)] 10 От тебя.m4a [02:15.840; ALAC • 780 kbps • 16 bit \ 44100 Hz • stereo; 12.65 MB (13 263 728 B)] 11 Жизнь и свобода.m4a [04:12.573; ALAC • 910 kbps • 16 bit \ 44100 Hz • stereo; 27.41 MB (28 745 928 B)] 12 Зачем я нужен тебе ft. Окна.m4a [03:15.053; ALAC • 861 kbps • 16 bit \ 44100 Hz • stereo; 20.05 MB (21 019 773 B)] 13 Щемит в душе тоска ft. БикМак.m4a [03:32.253; ALAC • 860 kbps • 16 bit \ 44100 Hz • stereo; 21.77 MB (22 830 247 B)] 14 Откровения.m4a [03:55.973; ALAC • 883 kbps • 16 bit \ 44100 Hz • stereo; 24.86 MB (26 065 425 B)] 15 В жизни так бывает.m4a [04:29.293; ALAC • 944 kbps • 16 bit \ 44100 Hz • stereo; 30.32 MB (31 795 436 B)] 16 Последняя встреча.m4a [02:30.307; ALAC • 784 kbps • 16 bit \ 44100 Hz • stereo; 14.07 MB (14 748 510 B)] 17 Синий дым.m4a [03:47.413; ALAC • 835 kbps • 16 bit \ 44100 Hz • stereo; 22.66 MB (23 758 050 B)] 18 Белые друзья.m4a [03:30.373; ALAC • 789 kbps • 16 bit \ 44100 Hz • stereo; 19.80 MB (20 761 190 B)] 19 Музыка.m4a [05:35.667; ALAC • 930 kbps • 16 bit \ 44100 Hz • stereo; 37.25 MB (39 056 623 B)] 20 Мы.m4a [04:18.840; ALAC • 959 kbps • 16 bit \ 44100 Hz • stereo; 29.61 MB (31 047 114 B)]
Accuracy: -m0
File 01 Оглянись - 100% CDDA [03:09:43]
Detected average hi-boundary frequency : 20628.070 Hz Detected average lo-boundary frequency : 15857.490 Hz Detected average hi-cut frequency : 21012.330 Hz Detected average lo-cut frequency : 10708.990 Hz Maximum probablis boundary frequency : 21891.000 Hz Coefficient of nonlinearity of a phase : 0.00576239 First order smothness : 0.58217820 Second order smothness : 0.50594060
File 02 Глупо было бы - 100% CDDA [03:54:29]
Detected average hi-boundary frequency : 20994.860 Hz Detected average lo-boundary frequency : 16462.350 Hz Detected average hi-cut frequency : 21524.450 Hz Detected average lo-cut frequency : 14255.280 Hz Maximum probablis boundary frequency : 21891.000 Hz Coefficient of nonlinearity of a phase : 0.02551700 First order smothness : 0.63881080 Second order smothness : 0.49176380
File 03 Что стоит - 100% CDDA [04:04:00]
Detected average hi-boundary frequency : 20187.810 Hz Detected average lo-boundary frequency : 14888.500 Hz Detected average hi-cut frequency : 20499.910 Hz Detected average lo-cut frequency : 10675.180 Hz Maximum probablis boundary frequency : 20502.000 Hz Coefficient of nonlinearity of a phase : 0.00733291 First order smothness : 0.58529980 Second order smothness : 0.48974850
File 04 Счастье ft. White Hot Ice - 95% MPEG [03:05:51]
Detected average hi-boundary frequency : 20938.680 Hz Detected average lo-boundary frequency : 16522.450 Hz Detected average hi-cut frequency : 21541.920 Hz Detected average lo-cut frequency : 12688.140 Hz Maximum probablis boundary frequency : 21891.000 Hz Coefficient of nonlinearity of a phase : 0.00850412 First order smothness : 0.58835440 Second order smothness : 0.43645570
File 05 Нас - 95% MPEG [02:50:55]
Detected average hi-boundary frequency : 20936.150 Hz Detected average lo-boundary frequency : 16779.880 Hz Detected average hi-cut frequency : 21484.830 Hz Detected average lo-cut frequency : 9255.209 Hz Maximum probablis boundary frequency : 21794.000 Hz Coefficient of nonlinearity of a phase : 0.01598747 First order smothness : 0.57994430 Second order smothness : 0.43008360
File 06 В моём городе - 95% MPEG [03:52:03]
Detected average hi-boundary frequency : 20988.530 Hz Detected average lo-boundary frequency : 16934.280 Hz Detected average hi-cut frequency : 21574.180 Hz Detected average lo-cut frequency : 14349.120 Hz Maximum probablis boundary frequency : 21891.000 Hz Coefficient of nonlinearity of a phase : 0.02865267 First order smothness : 0.56750200 Second order smothness : 0.51616810
File 07 Кричит! - 100% CDDA [03:29:59]
Detected average hi-boundary frequency : 20183.470 Hz Detected average lo-boundary frequency : 12892.540 Hz Detected average hi-cut frequency : 21025.000 Hz Detected average lo-cut frequency : 6836.775 Hz Maximum probablis boundary frequency : 21891.000 Hz Coefficient of nonlinearity of a phase : 0.20614130 First order smothness : 0.44836840 Second order smothness : 0.53062140
File 08 Дай огня! - 100% CDDA [04:14:01]
Detected average hi-boundary frequency : 20827.310 Hz Detected average lo-boundary frequency : 15334.640 Hz Detected average hi-cut frequency : 21675.950 Hz Detected average lo-cut frequency : 18182.090 Hz Maximum probablis boundary frequency : 21891.000 Hz Coefficient of nonlinearity of a phase : 0.07788930 First order smothness : 0.44767870 Second order smothness : 0.55932200
File 09 В моих глазах ft. White Hot Ice - 95% MPEG [03:37:73]
Detected average hi-boundary frequency : 19966.180 Hz Detected average lo-boundary frequency : 15631.290 Hz Detected average hi-cut frequency : 20198.620 Hz Detected average lo-cut frequency : 10544.170 Hz Maximum probablis boundary frequency : 19808.000 Hz Coefficient of nonlinearity of a phase : 0.00844403 First order smothness : 0.54764980 Second order smothness : 0.41699010
File 10 От тебя - 100% CDDA [02:15:63]
Detected average hi-boundary frequency : 20806.050 Hz Detected average lo-boundary frequency : 16155.140 Hz Detected average hi-cut frequency : 21439.650 Hz Detected average lo-cut frequency : 12188.760 Hz Maximum probablis boundary frequency : 21891.000 Hz Coefficient of nonlinearity of a phase : 0.02801867 First order smothness : 0.64390240 Second order smothness : 0.39721250
File 11 Жизнь и свобода - 95% MPEG [04:12:43]
Detected average hi-boundary frequency : 20033.400 Hz Detected average lo-boundary frequency : 15649.470 Hz Detected average hi-cut frequency : 20348.510 Hz Detected average lo-cut frequency : 8011.084 Hz Maximum probablis boundary frequency : 20244.000 Hz Coefficient of nonlinearity of a phase : 0.00546002 First order smothness : 0.55893250 Second order smothness : 0.36286140
File 12 Зачем я нужен тебе ft. Окна - 95% MPEG [03:15:04]
Detected average hi-boundary frequency : 20163.370 Hz Detected average lo-boundary frequency : 15964.710 Hz Detected average hi-cut frequency : 20363.420 Hz Detected average lo-cut frequency : 13062.320 Hz Maximum probablis boundary frequency : 20034.000 Hz Coefficient of nonlinearity of a phase : 0.00304294 First order smothness : 0.51034150 Second order smothness : 0.51515150
File 13 Щемит в душе тоска ft. БикМак - 95% MPEG [03:32:19]
Detected average hi-boundary frequency : 20841.010 Hz Detected average lo-boundary frequency : 17120.370 Hz Detected average hi-cut frequency : 21303.630 Hz Detected average lo-cut frequency : 14974.830 Hz Maximum probablis boundary frequency : 21310.000 Hz Coefficient of nonlinearity of a phase : 0.00617397 First order smothness : 0.62218210 Second order smothness : 0.40577100
File 14 Откровения - 100% CDDA [03:55:73]
Detected average hi-boundary frequency : 20367.610 Hz Detected average lo-boundary frequency : 15390.930 Hz Detected average hi-cut frequency : 20786.500 Hz Detected average lo-cut frequency : 11994.890 Hz Maximum probablis boundary frequency : 20599.000 Hz Coefficient of nonlinearity of a phase : 0.01344177 First order smothness : 0.59327460 Second order smothness : 0.48839070
File 15 В жизни так бывает - 95% MPEG [04:29:22]
Detected average hi-boundary frequency : 21140.450 Hz Detected average lo-boundary frequency : 17882.960 Hz Detected average hi-cut frequency : 21626.360 Hz Detected average lo-cut frequency : 17352.490 Hz Maximum probablis boundary frequency : 21891.000 Hz Coefficient of nonlinearity of a phase : 0.03758770 First order smothness : 0.59763720 Second order smothness : 0.60389160
File 16 Последняя встреча - 100% CDDA [02:30:23]
Detected average hi-boundary frequency : 20032.060 Hz Detected average lo-boundary frequency : 14568.280 Hz Detected average hi-cut frequency : 20275.850 Hz Detected average lo-cut frequency : 9596.746 Hz Maximum probablis boundary frequency : 19458.000 Hz Coefficient of nonlinearity of a phase : 0.00986984 First order smothness : 0.61177210 Second order smothness : 0.46023790
File 17 Синий дым - 95% MPEG [03:47:31]
Detected average hi-boundary frequency : 20787.690 Hz Detected average lo-boundary frequency : 17347.650 Hz Detected average hi-cut frequency : 21397.080 Hz Detected average lo-cut frequency : 14757.180 Hz Maximum probablis boundary frequency : 21891.000 Hz Coefficient of nonlinearity of a phase : 0.02971772 First order smothness : 0.51134960 Second order smothness : 0.57573260
File 18 Белые друзья - 95% MPEG [03:30:28]
Detected average hi-boundary frequency : 20264.440 Hz Detected average lo-boundary frequency : 16189.790 Hz Detected average hi-cut frequency : 20665.950 Hz Detected average lo-cut frequency : 11725.950 Hz Maximum probablis boundary frequency : 20400.000 Hz Coefficient of nonlinearity of a phase : 0.00874473 First order smothness : 0.54837270 Second order smothness : 0.53232280
File 19 Музыка - 99% CDDA [05:35:50]
Detected average hi-boundary frequency : 20552.720 Hz Detected average lo-boundary frequency : 15223.770 Hz Detected average hi-cut frequency : 21632.840 Hz Detected average lo-cut frequency : 9562.347 Hz Maximum probablis boundary frequency : 21891.000 Hz Coefficient of nonlinearity of a phase : 0.03895938 First order smothness : 0.44030060 Second order smothness : 0.56498750
File 20 Мы - 100% CDDA [04:18:63]
Detected average hi-boundary frequency : 20591.860 Hz Detected average lo-boundary frequency : 15333.530 Hz Detected average hi-cut frequency : 21709.130 Hz Detected average lo-cut frequency : 13528.520 Hz Maximum probablis boundary frequency : 21891.000 Hz Coefficient of nonlinearity of a phase : 0.04975878 First order smothness : 0.49336200 Second order smothness : 0.57265880
————— Summary: —————These tracks looks like CDDA with probability 100%.————————————————————————————————————————————————————————————————————————
ANALYZER: auCDtect: CD records authenticity detector, version 0.8.2 Copyright (c) 2004 Oleg Berngardt. All rights reserved. Copyright (c) 2004 Alexander Djourik. All rights reserved.
Time elapsed: 4 m 06 sLog created at January 16, 2019 11:06:34
=== BFC72A421A98F24D5E114348AC991ED7D6537AED7AC6C32E4A87C591664C33D9 ===

Скриншот(ы) тегов iTunes

2018 - Многоточие Band - Реквием по реальности (00:45:03)

Треклист:
01. Учиться любить ft. Динайс & Mary-A
02. Мы
03. Игрушки
04. Зима
05. Земли полотно
06. Останемся в прошлом
07. Перелом ft. Ян Sun
08. Сильным
09. Иди за мечтой
10. Будь со мной
11. Вороны ft. Ян Sun
12. Вот и всё

Лог создания рипа

Exact Audio Copy V1.3 from 2. September 2016
Отчёт EAC об извлечении, выполненном 7. апреля 2018, 23:35
Многоточие Band / Реквием по реальности
Дисковод: HL-DT-STDVDRAM GP60NB50 Adapter: 1 ID: 0
Режим чтения : ДостоверностьИспользование точного потока : ДаОтключение кэша аудио : ДаИспользование указателей C2 : Нет
Коррекция смещения при чтении : 6Способность читать области Lead-in и Lead-out : НетЗаполнение пропущенных сэмплов тишиной : ДаУдаление блоков с тишиной в начале и конце : НетПри вычислениях CRC использовались нулевые сэмплы : ДаИнтерфейс : Встроенный Win32-интерфейс для Win NT/2000Обработка зазоров : Добавлено к предыдущему треку
Выходной формат : Пользовательский кодировщикВыбранный битрейт : 128 kBit/sКачество : ВысокийДобавление ID3-тега : НетУтилита сжатия : C:\Users\Антон\Downloads\Архивы\qaac_2.64\qaac_2.64\x64\refalac64.exeДополнительные параметры : -s --ignorelength --artist "%artist%" --title "%title%" --album "%albumtitle%" --date "%year%" --track "%tracknr%" --genre "%genre%" -o %dest% %source%
TOC извлечённого CD
Трек | Старт | Длительность | Начальный сектор | Конечный сектор --------------------------------------------------------------------- 1 | 0:00.00 | 5:35.56 | 0 | 25180 2 | 5:35.56 | 4:19.62 | 25181 | 44667 3 | 9:55.43 | 3:15.01 | 44668 | 59293 4 | 13:10.44 | 3:56.23 | 59294 | 77016 5 | 17:06.67 | 3:38.63 | 77017 | 93429 6 | 20:45.55 | 3:30.43 | 93430 | 109222 7 | 24:16.23 | 3:34.44 | 109223 | 125316 8 | 27:50.67 | 4:02.71 | 125317 | 143537 9 | 31:53.63 | 2:53.60 | 143538 | 156572 10 | 34:47.48 | 4:09.50 | 156573 | 175297 11 | 38:57.23 | 2:33.35 | 175298 | 186807 12 | 41:30.58 | 3:32.05 | 186808 | 202712
Трек 1
Имя файла C:\Users\Антон\Downloads\Музыка\Многоточие Band - Реквием по реальности (2018)\01 Учиться любить ft. Динайс & Mary-A.wav
Длина предзазора 0:00:02.00
Пиковый уровень 98.8 % Скорость извлечения 1.3 X Качество трека 100.0 % CRC теста 394E1CD2 CRC копии 394E1CD2 Трек не обнаружен в базе AccurateRip Копирование... OK
Трек 2
Имя файла C:\Users\Антон\Downloads\Музыка\Многоточие Band - Реквием по реальности (2018)\02 Мы.wav
Длина предзазора 0:00:01.00
Пиковый уровень 98.8 % Скорость извлечения 1.4 X Качество трека 100.0 % CRC теста 4E463750 CRC копии 4E463750 Трек не обнаружен в базе AccurateRip Копирование... OK
Трек 3
Имя файла C:\Users\Антон\Downloads\Музыка\Многоточие Band - Реквием по реальности (2018)\03 Игрушки.wav
Длина предзазора 0:00:01.00
Пиковый уровень 98.8 % Скорость извлечения 1.5 X Качество трека 100.0 % CRC теста F1A6ECC2 CRC копии F1A6ECC2 Трек не обнаружен в базе AccurateRip Копирование... OK
Трек 4
Имя файла C:\Users\Антон\Downloads\Музыка\Многоточие Band - Реквием по реальности (2018)\04 Зима.wav
Длина предзазора 0:00:01.00
Пиковый уровень 98.8 % Скорость извлечения 1.6 X Качество трека 100.0 % CRC теста 3FF41383 CRC копии 3FF41383 Трек не обнаружен в базе AccurateRip Копирование... OK
Трек 5
Имя файла C:\Users\Антон\Downloads\Музыка\Многоточие Band - Реквием по реальности (2018)\05 Земли полотно.wav
Длина предзазора 0:00:01.00
Пиковый уровень 98.8 % Скорость извлечения 1.7 X Качество трека 100.0 % CRC теста 58CCC1D7 CRC копии 58CCC1D7 Трек не обнаружен в базе AccurateRip Копирование... OK
Трек 6
Имя файла C:\Users\Антон\Downloads\Музыка\Многоточие Band - Реквием по реальности (2018)\06 Останемся в прошлом.wav
Длина предзазора 0:00:01.00
Пиковый уровень 99.9 % Скорость извлечения 1.8 X Качество трека 100.0 % CRC теста A774E729 CRC копии A774E729 Трек не обнаружен в базе AccurateRip Копирование... OK
Трек 7
Имя файла C:\Users\Антон\Downloads\Музыка\Многоточие Band - Реквием по реальности (2018)\07 Перелом ft. Ян Sun.wav
Длина предзазора 0:00:01.00
Пиковый уровень 98.8 % Скорость извлечения 1.8 X Качество трека 100.0 % CRC теста B4871276 CRC копии B4871276 Трек не обнаружен в базе AccurateRip Копирование... OK
Трек 8
Имя файла C:\Users\Антон\Downloads\Музыка\Многоточие Band - Реквием по реальности (2018)\08 Сильным.wav
Длина предзазора 0:00:01.00
Пиковый уровень 98.8 % Скорость извлечения 1.9 X Качество трека 100.0 % CRC теста 598E16AA CRC копии 598E16AA Трек не обнаружен в базе AccurateRip Копирование... OK
Трек 9
Имя файла C:\Users\Антон\Downloads\Музыка\Многоточие Band - Реквием по реальности (2018)\09 Иди за мечтой.wav
Длина предзазора 0:00:01.00
Пиковый уровень 98.8 % Скорость извлечения 1.9 X Качество трека 100.0 % CRC теста 662DFA0B CRC копии 662DFA0B Трек не обнаружен в базе AccurateRip Копирование... OK
Трек 10
Имя файла C:\Users\Антон\Downloads\Музыка\Многоточие Band - Реквием по реальности (2018)\10 Будь со мной.wav
Длина предзазора 0:00:01.00
Пиковый уровень 98.8 % Скорость извлечения 1.8 X Качество трека 99.9 % CRC теста 5E8160EB CRC копии 5E8160EB Трек не обнаружен в базе AccurateRip Копирование... OK
Трек 11
Имя файла C:\Users\Антон\Downloads\Музыка\Многоточие Band - Реквием по реальности (2018)\11 Вороны ft. Ян Sun.wav
Длина предзазора 0:00:01.00
Пиковый уровень 98.8 % Скорость извлечения 2.0 X Качество трека 100.0 % CRC теста 944967F7 CRC копии 944967F7 Трек не обнаружен в базе AccurateRip Копирование... OK
Трек 12
Имя файла C:\Users\Антон\Downloads\Музыка\Многоточие Band - Реквием по реальности (2018)\12 Вот и всё.wav
Длина предзазора 0:00:01.00
Пиковый уровень 98.8 % Скорость извлечения 2.1 X Качество трека 100.0 % CRC теста 32540162 CRC копии 32540162 Трек не обнаружен в базе AccurateRip Копирование... OK
Ни одного трека нет в базе AccurateRip
Ошибок не произошло
Конец отчёта
---- CUETools DB Plugin V2.1.6
[CTDB TOCID: tMY0JQ3boKtlHDFFEWntdy__twI-] disk not present in databaseSubmit result: tMY0JQ3boKtlHDFFEWntdy__twI- has been uploaded
==== Контрольная сумма отчёта 923AFC1DF5A929DC0291E0313E4CB3294C84BB6DA3AC65247D57D9CD66242965 ====

Содержание индексной карты (.CUE)

REM GENRE RapREM DATE 2018REM DISCID B60A8E0CREM COMMENT "ExactAudioCopy v1.3"PERFORMER "Многоточие Band"TITLE "Реквием по реальности"REM COMPOSER ""FILE "01 Учиться любить ft. Динайс & Mary-A.wav" WAVE TRACK 01 AUDIO TITLE "Учиться любить ft. Динайс & Mary-A" PERFORMER "Многоточие Band" REM COMPOSER "" INDEX 01 00:00:00 TRACK 02 AUDIO TITLE "Мы" PERFORMER "Многоточие Band" REM COMPOSER "" INDEX 00 05:34:56FILE "02 Мы.wav" WAVE INDEX 01 00:00:00 TRACK 03 AUDIO TITLE "Игрушки" PERFORMER "Многоточие Band" REM COMPOSER "" INDEX 00 04:18:62FILE "03 Игрушки.wav" WAVE INDEX 01 00:00:00 TRACK 04 AUDIO TITLE "Зима" PERFORMER "Многоточие Band" REM COMPOSER "" INDEX 00 03:14:01FILE "04 Зима.wav" WAVE INDEX 01 00:00:00 TRACK 05 AUDIO TITLE "Земли полотно" PERFORMER "Многоточие Band" REM COMPOSER "" INDEX 00 03:55:23FILE "05 Земли полотно.wav" WAVE INDEX 01 00:00:00 TRACK 06 AUDIO TITLE "Останемся в прошлом" PERFORMER "Многоточие Band" REM COMPOSER "" INDEX 00 03:37:63FILE "06 Останемся в прошлом.wav" WAVE INDEX 01 00:00:00 TRACK 07 AUDIO TITLE "Перелом ft. Ян Sun" PERFORMER "Многоточие Band" REM COMPOSER "" INDEX 00 03:29:43FILE "07 Перелом ft. Ян Sun.wav" WAVE INDEX 01 00:00:00 TRACK 08 AUDIO TITLE "Сильным" PERFORMER "Многоточие Band" REM COMPOSER "" INDEX 00 03:33:44FILE "08 Сильным.wav" WAVE INDEX 01 00:00:00 TRACK 09 AUDIO TITLE "Иди за мечтой" PERFORMER "Многоточие Band" REM COMPOSER "" INDEX 00 04:01:71FILE "09 Иди за мечтой.wav" WAVE INDEX 01 00:00:00 TRACK 10 AUDIO TITLE "Будь со мной" PERFORMER "Многоточие Band" REM COMPOSER "" INDEX 00 02:52:60FILE "10 Будь со мной.wav" WAVE INDEX 01 00:00:00 TRACK 11 AUDIO TITLE "Вороны ft. Ян Sun" PERFORMER "Многоточие Band" REM COMPOSER "" INDEX 00 04:08:50FILE "11 Вороны ft. Ян Sun.wav" WAVE INDEX 01 00:00:00 TRACK 12 AUDIO TITLE "Вот и всё" PERFORMER "Многоточие Band" REM COMPOSER "" INDEX 00 02:32:35FILE "12 Вот и всё.wav" WAVE INDEX 01 00:00:00

Лог проверки качества

CUE Corrector v. 8.3.4 / b. 850 (Mar. 23, 2018)————————————————————————————————————————————————————————————————————————--- / Реквием по реальности
Folder: Многоточие Band - Реквием по реальности (2018)Audio files: 01 Учиться любить ft. Динайс & Mary-A.m4a [05:35.747; ALAC • 1013 kbps • 16 bit \ 44100 Hz • stereo; 40.57 MB (42 543 977 B)] 02 Мы.m4a [04:19.827; ALAC • 955 kbps • 16 bit \ 44100 Hz • stereo; 29.61 MB (31 048 616 B)] 03 Игрушки.m4a [03:15.013; ALAC • 1024 kbps • 16 bit \ 44100 Hz • stereo; 23.82 MB (24 977 729 B)] 04 Зима.m4a [03:56.307; ALAC • 990 kbps • 16 bit \ 44100 Hz • stereo; 27.92 MB (29 271 782 B)] 05 Земли полотно.m4a [03:38.840; ALAC • 959 kbps • 16 bit \ 44100 Hz • stereo; 25.05 MB (26 269 002 B)] 06 Останемся в прошлом.m4a [03:30.573; ALAC • 975 kbps • 16 bit \ 44100 Hz • stereo; 24.49 MB (25 677 100 B)] 07 Перелом ft. Ян Sun.m4a [03:34.587; ALAC • 981 kbps • 16 bit \ 44100 Hz • stereo; 25.13 MB (26 349 528 B)] 08 Сильным.m4a [04:02.947; ALAC • 955 kbps • 16 bit \ 44100 Hz • stereo; 27.70 MB (29 043 239 B)] 09 Иди за мечтой.m4a [02:53.800; ALAC • 1004 kbps • 16 bit \ 44100 Hz • stereo; 20.81 MB (21 824 934 B)] 10 Будь со мной.m4a [04:09.667; ALAC • 941 kbps • 16 bit \ 44100 Hz • stereo; 28.03 MB (29 396 405 B)] 11 Вороны ft. Ян Sun.m4a [02:33.467; ALAC • 981 kbps • 16 bit \ 44100 Hz • stereo; 17.97 MB (18 840 695 B)] 12 Вот и всё.m4a [03:32.067; ALAC • 954 kbps • 16 bit \ 44100 Hz • stereo; 24.15 MB (25 322 910 B)]
Accuracy: -m0
File 01 Учиться любить ft. Динайс & Mary-A - 100% CDDA [05:35:56]
Detected average hi-boundary frequency : 20653.700 Hz Detected average lo-boundary frequency : 15263.230 Hz Detected average hi-cut frequency : 21871.770 Hz Detected average lo-cut frequency : 11167.720 Hz Maximum probablis boundary frequency : 21326.000 Hz Coefficient of nonlinearity of a phase : 0.17630940 First order smothness : 0.53829080 Second order smothness : 0.38068810
File 02 Мы - 100% CDDA [04:19:62]
Detected average hi-boundary frequency : 20608.050 Hz Detected average lo-boundary frequency : 15470.800 Hz Detected average hi-cut frequency : 21707.690 Hz Detected average lo-cut frequency : 13435.850 Hz Maximum probablis boundary frequency : 21891.000 Hz Coefficient of nonlinearity of a phase : 0.08349307 First order smothness : 0.50789660 Second order smothness : 0.56604450
File 03 Игрушки - 100% CDDA [03:15:01]
Detected average hi-boundary frequency : 20253.610 Hz Detected average lo-boundary frequency : 13946.980 Hz Detected average hi-cut frequency : 21657.800 Hz Detected average lo-cut frequency : 14547.500 Hz Maximum probablis boundary frequency : 21891.000 Hz Coefficient of nonlinearity of a phase : 0.02594775 First order smothness : 0.41550980 Second order smothness : 0.49736720
File 04 Зима - 49% CDDA [03:56:23]
Detected average hi-boundary frequency : 21605.440 Hz Detected average lo-boundary frequency : 18394.540 Hz Detected average hi-cut frequency : 21983.660 Hz Detected average lo-cut frequency : 21437.300 Hz Maximum probablis boundary frequency : 21891.000 Hz Coefficient of nonlinearity of a phase : 0.32618160 First order smothness : 0.62865040 Second order smothness : 0.83385950
File 05 Земли полотно - 100% CDDA [03:38:63]
Detected average hi-boundary frequency : 20155.680 Hz Detected average lo-boundary frequency : 11820.750 Hz Detected average hi-cut frequency : 21708.790 Hz Detected average lo-cut frequency : 13129.670 Hz Maximum probablis boundary frequency : 21891.000 Hz Coefficient of nonlinearity of a phase : 0.37536380 First order smothness : 0.41264420 Second order smothness : 0.51986330
File 06 Останемся в прошлом - 100% CDDA [03:30:43]
Detected average hi-boundary frequency : 20240.830 Hz Detected average lo-boundary frequency : 13383.440 Hz Detected average hi-cut frequency : 21617.720 Hz Detected average lo-cut frequency : 14263.710 Hz Maximum probablis boundary frequency : 21891.000 Hz Coefficient of nonlinearity of a phase : 0.53942620 First order smothness : 0.37837840 Second order smothness : 0.67346030
File 07 Перелом ft. Ян Sun - 100% CDDA [03:34:44]
Detected average hi-boundary frequency : 20206.700 Hz Detected average lo-boundary frequency : 12369.760 Hz Detected average hi-cut frequency : 21750.590 Hz Detected average lo-cut frequency : 14000.390 Hz Maximum probablis boundary frequency : 21891.000 Hz Coefficient of nonlinearity of a phase : 0.10231320 First order smothness : 0.42043480 Second order smothness : 0.50652170
File 08 Сильным - 100% CDDA [04:02:71]
Detected average hi-boundary frequency : 20300.870 Hz Detected average lo-boundary frequency : 13856.500 Hz Detected average hi-cut frequency : 21782.340 Hz Detected average lo-cut frequency : 9875.631 Hz Maximum probablis boundary frequency : 21891.000 Hz Coefficient of nonlinearity of a phase : 0.56796200 First order smothness : 0.42236740 Second order smothness : 0.43927750
File 09 Иди за мечтой - 100% CDDA [02:53:60]
Detected average hi-boundary frequency : 20411.390 Hz Detected average lo-boundary frequency : 13951.680 Hz Detected average hi-cut frequency : 21689.500 Hz Detected average lo-cut frequency : 13592.070 Hz Maximum probablis boundary frequency : 21891.000 Hz Coefficient of nonlinearity of a phase : 0.24375220 First order smothness : 0.43786980 Second order smothness : 0.53146850
File 10 Будь со мной - 100% CDDA [04:09:50]
Detected average hi-boundary frequency : 20487.530 Hz Detected average lo-boundary frequency : 14738.160 Hz Detected average hi-cut frequency : 21668.080 Hz Detected average lo-cut frequency : 11939.370 Hz Maximum probablis boundary frequency : 21891.000 Hz Coefficient of nonlinearity of a phase : 0.08851393 First order smothness : 0.44053850 Second order smothness : 0.53103960
File 11 Вороны ft. Ян Sun - 100% CDDA [02:33:35]
Detected average hi-boundary frequency : 20463.750 Hz Detected average lo-boundary frequency : 14100.710 Hz Detected average hi-cut frequency : 21694.350 Hz Detected average lo-cut frequency : 13263.970 Hz Maximum probablis boundary frequency : 21891.000 Hz Coefficient of nonlinearity of a phase : 0.04097135 First order smothness : 0.45947590 Second order smothness : 0.47410120
File 12 Вот и всё - 100% CDDA [03:32:05]
Detected average hi-boundary frequency : 20323.130 Hz Detected average lo-boundary frequency : 14217.180 Hz Detected average hi-cut frequency : 21877.740 Hz Detected average lo-cut frequency : 12173.760 Hz Maximum probablis boundary frequency : 21891.000 Hz Coefficient of nonlinearity of a phase : 0.18853110 First order smothness : 0.45709280 Second order smothness : 0.51444830
————— Summary: —————These tracks looks like CDDA with probability 100%.————————————————————————————————————————————————————————————————————————
ANALYZER: auCDtect: CD records authenticity detector, version 0.8.2 Copyright (c) 2004 Oleg Berngardt. All rights reserved. Copyright (c) 2004 Alexander Djourik. All rights reserved.
Time elapsed: 2 m 49 sLog created at April 07, 2018 23:41:02
=== 3D2C4330D093DF97F8A6B1775D5C66459039535E88FAC26374B36B66E8DE4284 ===

Скриншот(ы) тегов iTunes

Об альбоме (сборнике)

"Реквием по реальности" - альбом в лучших традициях творчества группы Многоточие, в котором треки-мотиваторы, а также треки "о добром и вечном" соседствуют с антивоенными треками-манифестами, порой слишком жёсткими и хлёсткими, но всегда честными и искренними. Всё тот же катарсис – как modus operandi творчества группы, творчества, ведущего слушателя сквозь тернии (острое переживание и понимание негативных моментов реальности) к самосовершенствованию, очищению, освобождению разума и духа от навязанных стереотипов и оков. "Этот мир принадлежит сильным" - провозглашает группа, которой в этом году исполняется уже 20 лет и чьё творчество до сих пор находит отклик как в молодых, так и во взрослых сердцах по всему миру.


[geo-torrent.biz]_t_5546145.torrent
Torrent: Registered ·  [ 2019-01-29 20:14 ] ·  f9e2821db8afea36a6a85d871e5cf19e80c0042e

21 KB

Status: checked
Completed: 0 times
Size: 791 MB
Rating: 
(Votes: 0)
Say thanks: 0  Thanks
Похожие темы
[Profile]    [PM]
Display posts from previous:    
Reply to topic

The time now is: Today 02:01

All times are GMT + 7 Hours



You cannot post new topics in this forum
You cannot reply to topics in this forum
You cannot edit your posts in this forum
You cannot delete your posts in this forum
You cannot vote in polls in this forum
You cannot attach files in this forum
You can download files in this forum