[TR24][OF] Sensory Amusia - In Extremis - 2019 (Progressive Deathcore)

Reply to topic
DL-List and Torrent activity [Update пиров]
Size:  304 MB   |    Registered:  5 months 12 days   |    Completed:  0 times

Seeder not seen: Never

 
   
 
 
 
Author Message

Mak

Post 08-Jun-2019 20:52

[Quote]


Sensory Amusia

In Extremis



• Формат файла записи | Источник записи: [TR24][OF]
• Наличие водяных знаков: Нет
• Год издания релиза: 2019
• Жанр: Progressive Deathcore
• Продолжительность: 00:24:42
• Источник: none RounDeviL
• WEB ссылка
• Формат файла: FLAC (*.flac)
• Тип рипа: tracks
• Разрядность: 24/44,1
• Формат файла: WAV (flac.ape.wv)
• Количество каналов: 2.0
• Наличие сканов: front

01 - At the edge of reason (00:04:50)
02 - Decadence (00:04:41)
03 - Coma (00:04:03)
04 - Abomination (00:05:59)
05 - Chris's Song (00:05:08)
-

• Замер динамического диапазона •

foobar2000 1.4.2 / Dynamic Range Meter 1.1.1log date: 2019-06-08 10:30:21
--------------------------------------------------------------------------------Analyzed: Sensory Amusia / In Extremis--------------------------------------------------------------------------------
DR Peak RMS Duration Track--------------------------------------------------------------------------------DR5 -0.10 dB -6.18 dB 4:50 01-At the edge of reasonDR5 -0.10 dB -5.97 dB 4:42 02-DecadenceDR5 -0.10 dB -6.19 dB 4:04 03-ComaDR5 -0.10 dB -6.04 dB 6:00 04-AbominationDR7 -0.10 dB -10.11 dB 5:08 05-Chris's Song--------------------------------------------------------------------------------
Number of tracks: 5Official DR value: DR6
Samplerate: 44100 HzChannels: 2Bits per sample: 24Bitrate: 1559 kbpsCodec: FLAC================================================================================
-[url=profile.php?mode=viewprofile&u=305450] [/url]


[geo-torrent.biz]_t_5742061.torrent
Torrent: Registered ·  [ 2019-06-08 20:52 ] ·  51ed0c61d588f4a77b8f442634b6daaf37584d82

13 KB

Status: checked
Completed: 0 times
Size: 304 MB
Rating: 
(Votes: 0)
Say thanks: 0  Thanks
Похожие темы
[Profile]    [PM]
Display posts from previous:    
Reply to topic

The time now is: Today 02:04

All times are GMT + 7 Hours



You cannot post new topics in this forum
You cannot reply to topics in this forum
You cannot edit your posts in this forum
You cannot delete your posts in this forum
You cannot vote in polls in this forum
You cannot attach files in this forum
You can download files in this forum