Девять месяцев / Nine Months (Крис Коламбус / Chris Columbus) [1995, США, Комедия, BDRip] AVO (Петр Карцев) + AVO (Сергей Визгунов) + AVO (Михаил Иванов)

Reply to topic
DL-List and Torrent activity [Update пиров]
Size:  2.14 GB   |    Registered:  1 month 20 days   |    Completed:  0 times

Seeder not seen: Never

 
   
 
 
 
Author Message

Кейт

Post 30-Nov-2019 15:28

[Quote]

Девять месяцев / Nine Months
«Ready or Not»
Страна: США
Жанр: Комедия
Год выхода: 1995
Продолжительность: 01:43:18
Перевод: Авторский (одноголосый закадровый) Петр Карцев
Перевод 2: Авторский (одноголосый закадровый) Сергей Визгунов
Перевод 3: Авторский (одноголосый закадровый) Михаил Иванов
Субтитры: нет
Оригинальная аудиодорожка: нет
Режиссер: Крис Коламбус / Chris Columbus
В ролях: Хью Грант, Джулианна Мур, Том Арнольд, Джоан Кьюсак, Джефф Голдблюм, Робин Уильямс, Миа Коттет, Джои Симмрин, Эшли Джонсон, Алекса ПенаВега
Описание: Молодая счастливая пара из Сан-Франциско — детский психотерапевт Сэмуэл и учительница танцев Ребекка вместе уже пять лет. Ребекка, как всякая нормальная женщина, мечтает о ребенке. Сэмуэл же боится перемен. Начинается отсчет девяти месяцев беременности.
Друг Сэмуэля, художник-неудачник, расстался со своей любимой, потому что не хотел иметь детей. Он говорит, что неожиданная беременность — нож в спину мужчины, и на это способны только низкие и подлые женщины. Между влюбленными начинаются ссоры, потому что необходимо искать большую квартиру, большую машину, избавиться от кота.
Ребекка решает, что уйдет от Сэмуэля, если тот не смирится с мыслью о ребенке.
Доп. информация: Дорожка с С. Визгуновым синхронизирована и наложена ale_x2008 при помощи Sony Vegas и VirtualDubMod.
За оцифрованную с VHS дорожку благодарим - RoxMarty
Дорожка с М. Ивановым синхронизирована и наложена ale_x2008 при помощи Sony Vegas и VirtualDubMod.
За оцифрованную с VHS дорожку благодарим - dayanat76

Дорожка с П. Карцевым синхронизирована и наложена ale_x2008 при помощи Sony Vegas и VirtualDubMod.
За оцифрованную с VHS дорожку благодарим - alenavova


Сэмпл: http://yadi.sk/i/7lcqofFWOmeMBw
Качество видео: BDRip [Nine.Months.1995.1080p.BD-Remux.3хRus.Eng.]
Формат файла: AVI
Видео: 720x304 (2.37:1), 23.976 fps, XviD build 73 ~2388 kbps avg, 0.46 bit/pixel
Аудио: AC3 Dolby Digital, 48000Hz 2/0 (L,R) ch (mono), 192.00 kbps avg
Аудио 2: AC3 Dolby Digital, 48000Hz 2/0 (L,R) ch (mono), 192.00 kbps avg
Аудио 3: Аудио: AC3 Dolby Digital, 48000Hz 2/0 (L,R) ch (mono), 192 kbps avg

MediaInfo

Девять месяцев - Nine Months [by ale_x2008] fix.avi
Format : AVI
Format/Info : Audio Video Interleave
Format profile : OpenDML
File size : 2.14 GiB
Duration : 1 h 43 min
Overall bit rate : 2 971 kb/s
Movie name : Девять месяцев - Nine Months [by ale_x2008] fix
Director : by ale_X2008
Writing application : VirtualDubMod 1.5.10.2 (build 2540/release)
Copyright : Edich2
Comment :
Video
ID : 0
Format : MPEG-4 Visual
Format profile : Advanced Simple@L5
Format settings : BVOP1 / Custom Matrix
Format settings, BVOP : 1
Format settings, QPel : No
Format settings, GMC : No warppoints
Format settings, Matrix : Custom
Codec ID : XVID
Codec ID/Hint : XviD
Duration : 1 h 43 min
Bit rate : 2 371 kb/s
Width : 720 pixels
Height : 304 pixels
Display aspect ratio : 2.35:1
Frame rate : 23.976 (24000/1001) FPS
Color space : YUV
Chroma subsampling : 4:2:0
Bit depth : 8 bits
Scan type : Progressive
Compression mode : Lossy
Bits/(Pixel*Frame) : 0.452
Stream size : 1.71 GiB (80%)
Writing library : XviD 73
Audio #1
ID : 1
Format : AC-3
Format/Info : Audio Coding 3
Codec ID : 2000
Duration : 1 h 43 min
Bit rate mode : Constant
Bit rate : 192 kb/s
Channel(s) : 2 channels
Channel positions : Front: L R
Sampling rate : 48.0 kHz
Frame rate : 31.250 FPS (1536 SPF)
Bit depth : 16 bits
Compression mode : Lossy
Stream size : 142 MiB (6%)
Alignment : Split accross interleaves
Interleave, duration : 42 ms (1.00 video frame)
Interleave, preload duratio : 500 ms
Service kind : Complete Main
Audio #2
ID : 2
Format : AC-3
Format/Info : Audio Coding 3
Codec ID : 2000
Duration : 1 h 43 min
Bit rate mode : Constant
Bit rate : 192 kb/s
Channel(s) : 2 channels
Channel positions : Front: L R
Sampling rate : 48.0 kHz
Frame rate : 31.250 FPS (1536 SPF)
Bit depth : 16 bits
Compression mode : Lossy
Stream size : 142 MiB (6%)
Alignment : Split accross interleaves
Interleave, duration : 42 ms (1.00 video frame)
Interleave, preload duratio : 500 ms
Service kind : Complete Main
Audio #3
ID : 3
Format : AC-3
Format/Info : Audio Coding 3
Codec ID : 2000
Duration : 1 h 43 min
Bit rate mode : Constant
Bit rate : 192 kb/s
Channel(s) : 2 channels
Channel positions : Front: L R
Sampling rate : 48.0 kHz
Frame rate : 31.250 FPS (1536 SPF)
Bit depth : 16 bits
Compression mode : Lossy
Stream size : 142 MiB (6%)
Alignment : Split accross interleaves
Interleave, duration : 42 ms (1.00 video frame)
Interleave, preload duratio : 500 ms
Service kind : Complete Main

Скриншоты




[geo-torrent.biz]_t_5379341.torrent
Torrent: Registered ·  [ 2019-11-30 15:28 ] ·  9ed71f6af84cb9d2443af253549143b2b42a2049

11 KB

Status: checked
Completed: 0 times
Size: 2.14 GB
Rating: 
(Votes: 0)
Say thanks: 0  Thanks
Похожие темы
[Profile]    [PM]
Display posts from previous:    
Reply to topic

The time now is: Today 06:02

All times are GMT + 7 Hours



You cannot post new topics in this forum
You cannot reply to topics in this forum
You cannot edit your posts in this forum
You cannot delete your posts in this forum
You cannot vote in polls in this forum
You cannot attach files in this forum
You can download files in this forum