Приключения приходящей няни / Adventures in Babysitting (Крис Коламбус / Chris Columbus) [1987, США, комедия, BDRip-AVC] VO (Орбита) + Sub Eng + Original Eng

Reply to topic
DL-List and Torrent activity [Update пиров]
Size:  2.14 GB   |    Registered:  4 months 4 days   |    Completed:  0 times

Seeder not seen: Never

 
   
 
 
 
Author Message

КЭП

Post 01-Dec-2019 02:53

[Quote]

Приключения приходящей няни / Adventures in Babysitting
Страна: США
Жанр: комедия
Год выхода: 1987
Продолжительность: 01:42:17
Перевод: Одноголосый закадровый студии "Орбита"
Субтитры: английские
Оригинальная аудиодорожка: английский
Режиссер: Крис Коламбус /Chris Columbus/
В ролях: Элизабет Шу /Elizabeth Shue/, Майа Брютон /Maia Brewton/, Кит Куган /Keith Coogan/, Энтони Рэпп /Anthony Rapp/, Пенелопа Энн Миллер /Penelope Ann Miller/, Винсент Д'Онофрио /Vincent D'Onofrio/...
Рецензия Михаила Иванова: Смешные приключения 17-летней Крис Паркер (Шу), которой поручили посидеть с тремя детьми на время отсутствия родителей. Ее подруга попала в беду в городе - испугалась кого-то на вокзале, и Крис поехала ее выручать, захватив и подопечных. Фильм рассчитан в основном на детскую и подростковую аудиторию.
музыку исполняют KoKo Taylor, Albert Collins, The Rolling Stones, Iggy Pop, Muddy Waters, Sam Cooke...
Доп. информация: исходный бд от Тарантиныч; Орбиту оцифровал с древней кассеты panasonic e-180shg и подготовил [url=profile.php?mode=viewprofile&u=5358528]karlll[/url]
~СЭМПЛ~
Качество видео: BDRip-AVC
Формат файла: MKV
Видео: MPEG4 Video (H264) 720x388 23.976fps 2612Kbps
Аудио 1: Dolby AC3 48KHz 2ch 192Kbps = О
Аудио 2: Dolby AC3 48KHz 2ch 192Kbps = А
Формат файла субтитров: softsub (SRT)

песни и музыка

Babysitting Blues
Words by Mark Mueller
Music by Robert Kraft
Produced by Robert Kraft
Performed by Albert Collins, Elisabeth Shue (uncredited), Maia Brewton (uncredited),
Keith Coogan (uncredited), and Anthony Rapp (uncredited)
Courtesy of Alligator Records
Then He Kissed Me
Music and Lyrics by Jeff Barry, Ellie Greenwich, Phil Spector
Performed by The Crystals
Courtesy of Spector International Records
Expressway to Your Heart
Words and Music by Kenny Gamble (as Kenneth Gamble) & Leon Huff
Produced by Robert Kraft
Performed by Southside Johnny & The Asbury Jukes (as Southside Johnny and the Jukes)
Future In Your Eyes
Words and Music by Southside Johnny Lyon (as John Lyon) and Robin Batteaux
Produced by Robert Kraft
Performed by Southside Johnny & The Asbury Jukes (as Southside Johnny and the Jukes)
Twenty Five Miles
Words and Music by Johnny Bristol, Edwin Starr, Harvey Fuqua
Performed by Edwin Starr
Courtesy of Motown Records
Evil (Is Going On)
Words and Music by Willie Dixon
Performed by KoKo Taylor (as Koko Taylor)
Courtesy of Alligator Records
The Brady Bunch Theme
Words by Sherwood Schwartz
Music by Frank De Vol
Performed by The Brady Bunch
Courtesy of Paramount Pictures
What Does It Take (To Win Your Love?)
Words and Music by Johnny Bristol, Vernon Bullock, Harvey Fuqua
Performed by Junior Walker (as Jr. Walker)
Courtesy of Motown Records
Just Can't Stop
Words and Music by Barry Goldberg and Jay Gruska
Produced by Jay Gruska
Performed by Percy Sledge
Albert's Smokin' Ice
Written and Produced by Robert Kraft
Performed by Albert Collins
Courtesy of Alligator Records
Gimme Shelter
Words and Music by Mick Jagger and Keith Richards
Performed by The Rolling Stones
Courtesy ABKCO Music and Records, Inc.
Real Wild Child
Words and Music by Johnny O'Keefe (as John O'Keefe), Johnny Greenan (as John Greenan) and Dave Owen (as David Owens)
Performed by Iggy Pop
Courtesy of A&M Records
Blues Had a Baby and They Named It Rock-n-Roll
Words and Music by Muddy Waters (as Morganfield) - Brownie McGhee (as McGhee)
Performed by Muddy Waters
Courtesy of CBS Records
Bring It On Home To Me
Words and Music by Sam Cooke
(ABKCO Music)
Performed by Sam Cooke
Courtesy of RCA Records

MediaInfo

Format : MatroskaFormat version : Version 2File size : 2.14 GiBDuration : 1 h 42 minOverall bit rate : 2 993 kb/sMovie name : ADVENTURES IN BABYSITTING_1987_BDRIP_ОРБИТА_ENG_KBCEncoded date : UTC 2019-11-30 15:10:53Writing application : mkvmerge v6.9.1 ('Blue Panther') 32bit built on Apr 18 2014 18:15:44Writing library : libebml v1.3.0 + libmatroska v1.4.1
VideoID : 1Format : AVCFormat/Info : Advanced Video CodecFormat profile : High@L3.1Format settings : CABAC / 7 Ref FramesFormat settings, CABAC : YesFormat settings, RefFrames : 7 framesCodec ID : V_MPEG4/ISO/AVCDuration : 1 h 42 minBit rate : 2 612 kb/sWidth : 720 pixelsHeight : 388 pixelsDisplay aspect ratio : 1.85:1Frame rate mode : ConstantFrame rate : 23.976 (24000/1001) FPSColor space : YUVChroma subsampling : 4:2:0Bit depth : 8 bitsScan type : ProgressiveBits/(Pixel*Frame) : 0.390Stream size : 1.82 GiB (85%)Title : ADVENTURES IN BABYSITTING_1987Writing library : x264 core 152 r2851kMod ba24899Encoding settings : cabac=1 / ref=7 / deblock=1:-1:-1 / analyse=0x3:0x113 / me=umh / subme=9 / psy=1 / fade_compensate=0.00 / psy_rd=1.00:0.20 / mixed_ref=1 / me_range=24 / chroma_me=1 / trellis=2 / 8x8dct=1 / cqm=0 / deadzone=21,11 / fast_pskip=0 / chroma_qp_offset=-3 / threads=6 / lookahead_threads=1 / sliced_threads=0 / nr=0 / decimate=0 / interlaced=0 / bluray_compat=0 / constrained_intra=0 / bframes=7 / b_pyramid=2 / b_adapt=2 / b_bias=0 / direct=3 / weightb=1 / open_gop=0 / weightp=2 / keyint=250 / keyint_min=23 / scenecut=40 / intra_refresh=0 / rc_lookahead=50 / rc=2pass / mbtree=1 / bitrate=2612 / ratetol=1.0 / qcomp=0.60 / qpmin=0 / qpmax=69 / qpstep=4 / cplxblur=20.0 / qblur=0.5 / vbv_maxrate=14000 / vbv_bufsize=14000 / nal_hrd=none / filler=0 / ip_ratio=1.40 / aq=1:1.00Language : EnglishDefault : YesForced : No
Audio #1ID : 2Format : AC-3Format/Info : Audio Coding 3Commercial name : Dolby DigitalCodec ID : A_AC3Duration : 1 h 42 minBit rate mode : ConstantBit rate : 192 kb/sChannel(s) : 2 channelsChannel layout : L RSampling rate : 48.0 kHzFrame rate : 31.250 FPS (1536 SPF)Bit depth : 16 bitsCompression mode : LossyStream size : 141 MiB (6%)Title : ОрбитаLanguage : RussianService kind : Complete MainDefault : YesForced : No
Audio #2ID : 3Format : AC-3Format/Info : Audio Coding 3Commercial name : Dolby DigitalCodec ID : A_AC3Duration : 1 h 42 minBit rate mode : ConstantBit rate : 192 kb/sChannel(s) : 2 channelsChannel layout : L RSampling rate : 48.0 kHzFrame rate : 31.250 FPS (1536 SPF)Bit depth : 16 bitsCompression mode : LossyStream size : 141 MiB (6%)Title : EnglishLanguage : EnglishService kind : Complete MainDefault : NoForced : No
TextID : 4Format : UTF-8Codec ID : S_TEXT/UTF8Codec ID/Info : UTF-8 Plain TextTitle : engLanguage : EnglishDefault : NoForced : No
Menu00:00:00.000 : en:00:00:00.00000:04:53.335 : en:00:04:53.33500:11:16.092 : en:00:11:16.09200:14:43.091 : en:00:14:43.09100:17:29.715 : en:00:17:29.71500:21:05.055 : en:00:21:05.05500:27:08.544 : en:00:27:08.54400:29:36.566 : en:00:29:36.56600:35:16.698 : en:00:35:16.69800:41:17.558 : en:00:41:17.55800:51:05.145 : en:00:51:05.14500:55:43.048 : en:00:55:43.04801:01:21.177 : en:01:01:21.17701:05:14.911 : en:01:05:14.91101:10:24.804 : en:01:10:24.80401:15:25.563 : en:01:15:25.56301:19:36.522 : en:01:19:36.52201:24:27.688 : en:01:24:27.68801:27:08.306 : en:01:27:08.30601:30:30.216 : en:01:30:30.21601:33:59.425 : en:01:33:59.42501:37:15.872 : en:01:37:15.872

Скриншоты



[geo-torrent.biz]_t_5813569.torrent
Torrent: Registered ·  [ 2019-12-01 02:53 ] ·  6dedfd1caeb517faaf3c13d5935a9f954c3a5323

11 KB

Status: checked
Completed: 0 times
Size: 2.14 GB
Rating: 
(Votes: 0)
Say thanks: 0  Thanks
Похожие темы
[Profile]    [PM]
Display posts from previous:    
Reply to topic

The time now is: Today 02:15

All times are GMT + 7 Hours



You cannot post new topics in this forum
You cannot reply to topics in this forum
You cannot edit your posts in this forum
You cannot delete your posts in this forum
You cannot vote in polls in this forum
You cannot attach files in this forum
You can download files in this forum