[TR24][OF] (Dungeon Synth, Dark Ambient, Folk, Medieval) Mari Lwyd - Future King - 2019

Reply to topic
DL-List and Torrent activity [Update пиров]
Size:  422 MB   |    Registered:  2 months 13 days   |    Completed:  0 times

Seeder not seen: Never

 
   
 
 
 
Author Message

Кейт

Post 23-Jan-2020 23:38

[Quote]

Mari Lwyd – Future King
-An exploration of Welsh history and myth through musical anachronisms.-Формат файла записи/Источник записи: [TR24][OF]
Наличие водяных знаков: нет
Жанр: Dungeon Synth, Dark Ambient, Folk, Medieval
Страна исполнителя: UK (Wales)
Дата издания: 13 ноября 2019
Издатель (лейбл): Not On Label (Mari Lwyd Self-released)
Номер по каталогу: none
Продолжительность: 39:29
Источник (релизер): marilwyd.bandcamp.com/album/future-king ops
Наличие полиграфии в содержимом раздачи: цифровая фронтальная обложка
Треклист:
01. Ascend the Throne (03:48)
02. Solace in the Hall Of Kings (03:28)
03. On Paths Seldom Travelled (03:41)
04. King's Peace (03:45)
05. Something Wicked This Way Comes (03:21)
06. Horror at Catraeth (06:14)
07. Cân y Fari Lwyd (Traditional) (02:46)
08. Heroes of Snowdonia (03:46)
09. By the Light of a Tallow Candle (02:48)
10. Rest Eternal in the Hall Of Kings (05:52)

Формат файла: FLAC (*.flac)
Тип рипа: tracks
Разрядность: 24/44,1
Формат файла: WAV (flac.ape.wv)
Количество каналов: 2.0

Замер динамического диапазона foo_dr - DR9

foobar2000 1.4.8 / Dynamic Range Meter 1.1.1log date: 2019-11-21 23:16:24
--------------------------------------------------------------------------------Analyzed: Mari Lwyd / Future King--------------------------------------------------------------------------------
DR Peak RMS Duration Track--------------------------------------------------------------------------------DR9 -0.10 dB -11.41 dB 3:48 01-Ascend the ThroneDR9 -0.10 dB -10.51 dB 3:28 02-Solace in the Hall Of KingsDR9 -0.10 dB -10.81 dB 3:41 03-On Paths Seldom TravelledDR7 -0.10 dB -9.56 dB 3:45 04-King's PeaceDR8 -0.10 dB -10.75 dB 3:21 05-Something Wicked This Way ComesDR9 -0.10 dB -11.90 dB 6:14 06-Horror at CatraethDR10 -0.10 dB -12.04 dB 2:46 07-Cân y Fari Lwyd (Traditional)DR6 -0.10 dB -7.75 dB 3:46 08-Heroes of SnowdoniaDR9 -0.10 dB -12.17 dB 2:48 09-By the Light of a Tallow CandleDR10 -0.10 dB -12.34 dB 5:52 10-Rest Eternal in the Hall Of Kings--------------------------------------------------------------------------------
Number of tracks: 10Official DR value: DR9
Samplerate: 44100 HzChannels: 2Bits per sample: 24Bitrate: 1471 kbpsCodec: FLAC================================================================================


[geo-torrent.biz]_t_5809018.torrent
Torrent: Registered ·  [ 2020-01-23 23:37 ] ·  59dda8daba66a5fcc6eb4b1b69556a730549b569

18 KB

Status: checked
Completed: 0 times
Size: 422 MB
Rating: 
(Votes: 0)
Say thanks: 0  Thanks
Похожие темы
[Profile]    [PM]
Display posts from previous:    
Reply to topic

The time now is: Today 01:20

All times are GMT + 7 Hours



You cannot post new topics in this forum
You cannot reply to topics in this forum
You cannot edit your posts in this forum
You cannot delete your posts in this forum
You cannot vote in polls in this forum
You cannot attach files in this forum
You can download files in this forum