(Contemporary Jazz) [CD] Anders Bergcrantz - About Time - 2007, FLAC (tracks+.cue), lossless

Reply to topic
DL-List and Torrent activity [Update пиров]
Size:  358 MB   |    Registered:  6 months   |    Completed:  0 times

Seeder not seen: Never

 
   
 
 
 
Author Message

КЭП

Post 16-Apr-2019 03:13

[Quote]

Anders Bergcrantz - About Time- Жанр: Contemporary Jazz
Носитель: CD
Год издания: 2007
Издатель (лейбл): Stunt Records
Номер по каталогу: STUCD 07122
Аудиокодек: FLAC (*.flac)
Тип рипа: tracks+.cue
Продолжительность: 00:55:04
Источник: www
Наличие сканов в содержимом раздачи: нет--Anders Bergcrantz: trumpet, flugelhorn
Vincent Nilsson: trombone, bass trombone
Jacob Karlzon: piano
Lasse Lundstrom: bass
Lennart Gruvstedt: drums--

01. Dedication (08:16)
02. Pavo (08:44)
03. That's Nice, Don't Stop (06:49)
04. Chief Sitting Bull (05:49)
05. About Time (01:42)
06. While My Horn Gently Weeps (08:50)
07. Cochise (08:46)
08. Solo/Duo Ad Libitum (01:46)
09. Runeberg (04:17)--

Лог создания рипа

Exact Audio Copy V1.3 from 2. September 2016
EAC extraction logfile from 14. April 2019, 15:32
Anders Bergcrantz / About Time
Used drive : TSSTcorpCDDVDW SH-222AB Adapter: 1 ID: 0
Read mode : SecureUtilize accurate stream : YesDefeat audio cache : YesMake use of C2 pointers : No
Read offset correction : 6Overread into Lead-In and Lead-Out : NoFill up missing offset samples with silence : YesDelete leading and trailing silent blocks : NoNull samples used in CRC calculations : YesUsed interface : Native Win32 interface for Win NT & 2000Gap handling : Appended to previous track
Used output format : User Defined EncoderSelected bitrate : 1024 kBit/sQuality : HighAdd ID3 tag : NoCommand line compressor : C:\Program Files (x86)\Exact Audio Copy\Flac\flac.exeAdditional command line options : -8 -V -T "ARTIST=%artist%" -T "TITLE=%title%" -T "ALBUM=%albumtitle%" -T "DATE=%year%" -T "TRACKNUMBER=%tracknr%" -T "GENRE=%genre%" -T "PERFORMER=%albuminterpret%" -T "COMPOSER=%composer%" %haslyrics%--tag-from-file=LYRICS="%lyricsfile%"%haslyrics% -T "ALBUMARTIST=%albumartist%" -T "DISCNUMBER=%cdnumber%" -T "TOTALDISCS=%totalcds%" -T "TOTALTRACKS=%numtracks%" -T "COMMENT=%comment%" %source% -o %dest%
TOC of the extracted CD
Track | Start | Length | Start sector | End sector --------------------------------------------------------- 1 | 0:00.00 | 8:16.15 | 0 | 37214 2 | 8:16.15 | 8:44.66 | 37215 | 76580 3 | 17:01.06 | 6:49.52 | 76581 | 107307 4 | 23:50.58 | 5:49.49 | 107308 | 133531 5 | 29:40.32 | 1:42.52 | 133532 | 141233 6 | 31:23.09 | 8:50.53 | 141234 | 181036 7 | 40:13.62 | 8:46.10 | 181037 | 220496 8 | 48:59.72 | 1:46.72 | 220497 | 228518 9 | 50:46.69 | 4:17.58 | 228519 | 247851
Track 1
Filename D:\EACRips\Anders Bergcrantz ‎– About Time (2007) {STUCD 07122} FLAC\01 - Dedication.wav
Pre-gap length 0:00:02.00
Peak level 98.9 % Extraction speed 5.0 X Track quality 100.0 % Test CRC 1CDDDAEA Copy CRC 1CDDDAEA Accurately ripped (confidence 3) [D52B1BB2] (AR v2) Copy OK
Track 2
Filename D:\EACRips\Anders Bergcrantz ‎– About Time (2007) {STUCD 07122} FLAC\02 - Pavo.wav
Pre-gap length 0:00:01.89
Peak level 98.9 % Extraction speed 5.4 X Track quality 99.9 % Test CRC 4E38618E Copy CRC 4E38618E Accurately ripped (confidence 3) [85CDE71E] (AR v2) Copy OK
Track 3
Filename D:\EACRips\Anders Bergcrantz ‎– About Time (2007) {STUCD 07122} FLAC\03 - That's Nice, Don't Stop.wav
Pre-gap length 0:00:02.73
Peak level 98.9 % Extraction speed 5.8 X Track quality 99.9 % Test CRC 0DD582E6 Copy CRC 0DD582E6 Accurately ripped (confidence 3) [D52CC7F6] (AR v2) Copy OK
Track 4
Filename D:\EACRips\Anders Bergcrantz ‎– About Time (2007) {STUCD 07122} FLAC\04 - Chief Sitting Bull.wav
Pre-gap length 0:00:02.73
Peak level 98.9 % Extraction speed 7.1 X Track quality 100.0 % Test CRC 9F2B6675 Copy CRC 9F2B6675 Accurately ripped (confidence 3) [95DA9998] (AR v2) Copy OK
Track 5
Filename D:\EACRips\Anders Bergcrantz ‎– About Time (2007) {STUCD 07122} FLAC\05 - About Time.wav
Pre-gap length 0:00:02.73
Peak level 98.8 % Extraction speed 5.9 X Track quality 100.0 % Test CRC E495F546 Copy CRC E495F546 Accurately ripped (confidence 3) [0E03CF47] (AR v2) Copy OK
Track 6
Filename D:\EACRips\Anders Bergcrantz ‎– About Time (2007) {STUCD 07122} FLAC\06 - While My Horn Gently Weeps.wav
Peak level 98.9 % Extraction speed 8.0 X Track quality 100.0 % Test CRC 1B6BEA19 Copy CRC 1B6BEA19 Accurately ripped (confidence 3) [C8734B4B] (AR v2) Copy OK
Track 7
Filename D:\EACRips\Anders Bergcrantz ‎– About Time (2007) {STUCD 07122} FLAC\07 - Cochise.wav
Pre-gap length 0:00:02.73
Peak level 98.9 % Extraction speed 8.6 X Track quality 100.0 % Test CRC 57947B2E Copy CRC 57947B2E Accurately ripped (confidence 3) [4FD365CA] (AR v2) Copy OK
Track 8
Filename D:\EACRips\Anders Bergcrantz ‎– About Time (2007) {STUCD 07122} FLAC\08 - Solo,Duo Ad Libitum.wav
Pre-gap length 0:00:02.73
Peak level 92.8 % Extraction speed 7.0 X Track quality 100.0 % Test CRC 131DE440 Copy CRC 131DE440 Accurately ripped (confidence 3) [63FA034B] (AR v2) Copy OK
Track 9
Filename D:\EACRips\Anders Bergcrantz ‎– About Time (2007) {STUCD 07122} FLAC\09 - Runeberg.wav
Pre-gap length 0:00:01.72
Peak level 98.9 % Extraction speed 8.6 X Track quality 100.0 % Test CRC D12B3E5B Copy CRC D12B3E5B Accurately ripped (confidence 3) [3579D6AC] (AR v2) Copy OK
All tracks accurately ripped
No errors occurred
End of status report
---- CUETools DB Plugin V2.1.6
[CTDB TOCID: Pz5uMfwzUJpwDEouQRv_6bxWaJ8-] foundSubmit result: Pz5uMfwzUJpwDEouQRv_6bxWaJ8- has been confirmedTrack | CTDB Status 1 | (2/2) Accurately ripped 2 | (2/2) Accurately ripped 3 | (2/2) Accurately ripped 4 | (2/2) Accurately ripped 5 | (2/2) Accurately ripped 6 | (2/2) Accurately ripped 7 | (2/2) Accurately ripped 8 | (2/2) Accurately ripped 9 | (2/2) Accurately ripped
==== Log checksum 159BC5013E26E42D7EF4F1E37C94D1BEB4F769F0782CB70CBF3708E2C3A0146F ====

Содержание индексной карты (.CUE)

REM GENRE JazzREM DATE 2007REM DISCID 7A0CE809REM COMMENT "ExactAudioCopy v1.3"PERFORMER "Anders Bergcrantz"TITLE "About Time"REM COMPOSER ""FILE "01 - Dedication.wav" WAVE TRACK 01 AUDIO TITLE "Dedication" PERFORMER "Anders Bergcrantz" REM COMPOSER "" INDEX 01 00:00:00 TRACK 02 AUDIO TITLE "Pavo" PERFORMER "Anders Bergcrantz" REM COMPOSER "" INDEX 00 08:14:23FILE "02 - Pavo.wav" WAVE INDEX 01 00:00:00 TRACK 03 AUDIO TITLE "That's Nice, Don't Stop" PERFORMER "Anders Bergcrantz" REM COMPOSER "" INDEX 00 08:42:11FILE "03 - That's Nice, Don't Stop.wav" WAVE INDEX 01 00:00:00 TRACK 04 AUDIO TITLE "Chief Sitting Bull" PERFORMER "Anders Bergcrantz" REM COMPOSER "" INDEX 00 06:46:72FILE "04 - Chief Sitting Bull.wav" WAVE INDEX 01 00:00:00 TRACK 05 AUDIO TITLE "About Time" PERFORMER "Anders Bergcrantz" REM COMPOSER "" INDEX 00 05:46:69FILE "05 - About Time.wav" WAVE INDEX 01 00:00:00FILE "06 - While My Horn Gently Weeps.wav" WAVE TRACK 06 AUDIO TITLE "While My Horn Gently Weeps" PERFORMER "Anders Bergcrantz" REM COMPOSER "" INDEX 01 00:00:00 TRACK 07 AUDIO TITLE "Cochise" PERFORMER "Anders Bergcrantz" REM COMPOSER "" INDEX 00 08:47:73FILE "07 - Cochise.wav" WAVE INDEX 01 00:00:00 TRACK 08 AUDIO TITLE "Solo/Duo Ad Libitum" PERFORMER "Anders Bergcrantz" REM COMPOSER "" INDEX 00 08:43:30FILE "08 - Solo,Duo Ad Libitum.wav" WAVE INDEX 01 00:00:00 TRACK 09 AUDIO TITLE "Runeberg" PERFORMER "Anders Bergcrantz" REM COMPOSER "" INDEX 00 01:45:18FILE "09 - Runeberg.wav" WAVE INDEX 01 00:00:00


[geo-torrent.biz]_t_5718921.torrent
Torrent: Registered ·  [ 2019-04-16 03:12 ] ·  3a8f6f0f1511b16dd3189431d4580311ccf8cb71

15 KB

Status: checked
Completed: 0 times
Size: 358 MB
Rating: 
(Votes: 0)
Say thanks: 0  Thanks
Похожие темы
[Profile]    [PM]
Display posts from previous:    
Reply to topic

The time now is: Today 16:38

All times are GMT + 7 Hours



You cannot post new topics in this forum
You cannot reply to topics in this forum
You cannot edit your posts in this forum
You cannot delete your posts in this forum
You cannot vote in polls in this forum
You cannot attach files in this forum
You can download files in this forum