[DOC4PSP]Вторая Ударная. Преданная армия Власова[Алексей Пивоваров][НТВ][2011, Документальный, SATRip]

Reply to topic
DL-List and Torrent activity [Update пиров]
Size:  379 MB   |    Registered:  5 months 17 days   |    Completed:  0 times

Seeder not seen: Never

 
   
 
 
 
Author Message

Mr_Fox

Post 04-May-2019 22:11

[Quote]

Вторая Ударная. Преданная армия Власова
Год выхода: 2011
Страна: Россия
Жанр: Документальный
Продолжительность: 01:22:18
Телеканал: НТВ-Режиссер: Алексей Пивоваров-Описание: Этот советский генерал был на особом счету у Сталина и слыл его любимчиком. В декабре 41-го, вместе с Жуковым и Рокоссовским, он был назван «спасителем Москвы». В 1942 году вождь поручил ему новую, ответственную миссию. Никто не мог предположить, что скоро фамилия этого генерала станет такой же нарицательной, как имя Иуды. Андрей Власов навсегда остался в истории предателем № 1, командующим так называемой Русской освободительной армией, созданной немцами в основном из бывших советских военнопленных. Увы, зловещая тень предательства Власова пала и на совсем другую армию, которой он командовал, но которая никогда не предавала. Вторая Ударная была сформирована в начале 1942 года для прорыва блокады Ленинграда, когда Ставка планировала развить успех Битвы под Москвой и на других участках фронта. В январское контрнаступление на северо-западе бросили сотни тысяч бойцов. К сожалению, советское командование не учло, что немцы еще очень сильны, а их заранее подготовленная оборона исключительно крепка. После долгих кровопролитных боев Вторая Ударная попала в окружение. На ее спасение и был отправлен генерал Власов...
Качество: SATRip
Формат файла: MP4
Видео кодек: H.264
Аудио кодек: AAC
Видео: MPEG-4 Video (H.264) 480x272 (512 Kbps)
Аудио: AAC 48000Hz stereo 128Kbps-

Скриншоты

MI

Формат файла : MPEG-4
Профиль формата : Base Media
Идентификатор кодека : isom
Размер файла : 379 Мбайт
Продолжительность : 1 ч. 22 м.
Общий поток : 644 Кбит/сек
Дата кодирования : UTC 2011-02-24 23:52:06
Дата пометки : UTC 2011-02-24 23:52:06
Видео
Идентификатор : 1
Формат файла : AVC
Формат файла/Информация : Advanced Video Codec
Профиль формата : Main@L3.0
Параметр CABAC формата : Да
Параметр ReFrames формата : 2 кадры
Идентификатор кодека : avc1
Идентификатор кодека/Информация : Advanced Video Coding
Продолжительность : 1 ч. 22 м.
Вид битрейта : Переменный
Битрейт : 512 Кбит/сек
Максимальный битрейт : 1850 Кбит/сек
Ширина : 480 пикс.
Высота : 272 пикс.
Соотношение сторон : 16:9
Режим частоты кадров : Постоянный
Частота кадров : 25,000 кадр/сек
Цветовое пространство : YUV
Подвыборка цветности : 4:2:0
Битовая глубина : 8 бит
Тип развёртки : Прогрессивная
Бит/(Пиксели*Кадры) : 0.157
Размер потока : 301 Мбайт (79%)
Библиотека кодирования : x264 core 65 r999kMod cc51047
Настройки программы : cabac=1 / ref=2 / deblock=1:-2:-1 / analyse=0x1:0x131 / me=umh / subme=7 / psy_rd=1.0:0.0 / mixed_ref=1 / me_range=16 / chroma_me=1 / trellis=2 / 8x8dct=0 / cqm=0 / deadzone=21,11 / chroma_qp_offset=-2 / threads=2 / thread_queue=2 / nr=0 / decimate=0 / mbaff=0 / bframes=3 / b_pyramid=0 / b_adapt=1 / b_bias=0 / direct=3 / wpredb=1 / keyint=250 / keyint_min=25 / scenecut=40(pre) / rc=2pass / bitrate=512 / ratetol=1.0 / qcomp=0.60 / qpmin=10 / qpmax=51 / qpstep=4 / cplxblur=20.0 / qblur=0.5 / ip_ratio=1.40 / pb_ratio=1.30 / aq=1:1.00
Дата кодирования : UTC 2011-02-24 23:52:06
Дата пометки : UTC 2011-02-24 23:52:20
Аудио
Идентификатор : 2
Формат файла : AAC
Формат файла/Информация : Advanced Audio Codec
Профиль формата : LC
Идентификатор кодека : 40
Продолжительность : 1 ч. 22 м.
Вид битрейта : Переменный
Битрейт : 129 Кбит/сек
Максимальный битрейт : 144 Кбит/сек
Канал(ы) : 2 канала(ов)
Расположение каналов : Front: L R
Частота : 48,0 КГц
Метод сжатия : С потерями
Размер потока : 75,9 Мбайт (20%)
Дата кодирования : UTC 2011-02-24 23:52:18
Дата пометки : UTC 2011-02-24 23:52:20


[geo-torrent.biz]_t_3448134.torrent
Torrent: Registered ·  [ 2019-05-04 22:09 ] ·  8578b7bfaa26f98ec83879b14d99c669e406590e

15 KB

Status: checked
Completed: 0 times
Size: 379 MB
Rating: 
(Votes: 0)
Say thanks: 0  Thanks
Похожие темы
[Profile]    [PM]
Display posts from previous:    
Reply to topic

The time now is: Today 18:22

All times are GMT + 7 Hours



You cannot post new topics in this forum
You cannot reply to topics in this forum
You cannot edit your posts in this forum
You cannot delete your posts in this forum
You cannot vote in polls in this forum
You cannot attach files in this forum
You can download files in this forum