Евровидение 2019. Финал национального отборочного тура (Беларусь) [2019, Pop, SATRip]

Reply to topic
DL-List and Torrent activity [Update пиров]
Size:  4.07 GB   |    Registered:  5 months 15 days   |    Completed:  0 times

Seeder not seen: Never

 
   
 
 
 
Author Message

Mr_Fox

Post 04-May-2019 22:15

[Quote]

Евровидение 2019. Финал национального отборочного тура
Страна: Беларусь
Жанр: Pop
Продолжительность: 01:48:39
Год выхода: 2019Описание: Внимание поклонников "Евровидения" сейчас наверняка сосредоточено на финале национального отбора песенного конкурса и уже через считанные часы увенчается презентом в виде разрешенной интриги: кто представит нашу страну в мае в Тель-Авиве. До гала-концерта остается менее часа. Трансляция шоу будет вестись из студии "600 метров". Этим вечером участники презентуют композиции на белорусском, русском и английском языках. Среди финалистов представители не только отечественной, но и зарубежной эстрады. Победителю проекта достанется стилизованное евровизионное сердце и, конечно же, музыкальная путевка на конкурс. Напомним, "Евровидение-2019" в мае принимает Тель-Авив.

Треклист

1. Michael Soul - Humanize
2. ЗЕНА - Like it
3. Ева Коган - Run
4. NLGN & Mirex - Champion
5. Sebastian Roos - Never Getting Close
6. Алёна Горбачёва - Can we dream
7. Группа "PROвокация " - Running Away From The Sun
8. Группа "Аура" - Чаравала
9. NAPOLI - Let it go
10. КейСи - No Love Lost
Источник: собственная запись
Качество: SATRip
Формат файла: TS/M2TS
Видео кодек: H.264
Аудио кодек: MP2
Видео: MPEG4 Video (H264) 1920x1080 (16:9) 4 900 kb/s 25fps
Аудио: MPEG Audio 192kbps 48000Hz stereo

MediaInfo

GeneralID : 1 (0x1)Complete name : F:\Мои раздачи\Музыка\Евровидение 2019. Финал национального отборочного тура.tsFormat : MPEG-TSFile size : 4.07 GiBDuration : 1 h 48 minOverall bit rate mode : VariableOverall bit rate : 5 358 kb/s
VideoID : 810 (0x32A)Menu ID : 1 (0x1)Format : AVCFormat/Info : Advanced Video CodecFormat profile : High@L4Format settings : CABAC / 4 Ref FramesFormat settings, CABAC : YesFormat settings, ReFrames : 4 framesCodec ID : 27Duration : 1 h 48 minBit rate : 4 900 kb/sWidth : 1 920 pixelsHeight : 1 080 pixelsDisplay aspect ratio : 16:9Frame rate : 25.000 FPSStandard : ComponentColor space : YUVChroma subsampling : 4:2:0Bit depth : 8 bitsScan type : InterlacedScan type, store method : Separated fieldsScan order : Top Field FirstBits/(Pixel*Frame) : 0.095Stream size : 3.72 GiB (91%)Color range : LimitedColor primaries : BT.709Transfer characteristics : BT.709Matrix coefficients : BT.709
AudioID : 820 (0x334)Menu ID : 1 (0x1)Format : MPEG AudioFormat version : Version 1Format profile : Layer 2Codec ID : 3Duration : 1 h 48 minBit rate mode : ConstantBit rate : 192 kb/sChannel(s) : 2 channelsSampling rate : 48.0 kHzFrame rate : 41.667 FPS (1152 SPF)Compression mode : LossyStream size : 149 MiB (4%)Language : Russian

Скриншоты



[geo-torrent.biz]_t_5700730.torrent
Torrent: Registered ·  [ 2019-05-04 22:09 ] ·  1073bf5d8f70e93ae21589e28ca834ae51b65a7c

11 KB

Status: checked
Completed: 0 times
Size: 4.07 GB
Rating: 
(Votes: 0)
Say thanks: 0  Thanks
Похожие темы
[Profile]    [PM]
Display posts from previous:    
Reply to topic

The time now is: Today 21:41

All times are GMT + 7 Hours



You cannot post new topics in this forum
You cannot reply to topics in this forum
You cannot edit your posts in this forum
You cannot delete your posts in this forum
You cannot vote in polls in this forum
You cannot attach files in this forum
You can download files in this forum