(Fusion) Kova & Co - Saxing For Sailing - 2008, FLAC (tracks+.cue), lossless

Reply to topic
DL-List and Torrent activity [Update пиров]
Size:  303 MB   |    Registered:  6 months 15 days   |    Completed:  0 times

Seeder not seen: Never

 
   
 
 
 
Author Message

КЭП

Post 05-May-2019 19:22

[Quote]

Kova & Co / Saxing For Sailing
Жанр: Fusion
Страна-производитель диска: Croatia
Год издания: 2008
Издатель (лейбл): Zeljko Kovacevic
Страна: Croatia
Аудиокодек: FLAC (*.flac)
Тип рипа: tracks+.cue
Битрейт аудио: lossless
Продолжительность: 00:47:00
Источник (релизер): personnal
Наличие сканов в содержимом раздачи: нет
Треклист:
01 - Stormy Weather
02 - Give Me A Rope
03 - NMW
04 - Aqua di Salgada
05 - Spring
06 - Aladin
07 - Blue Sky

Лог создания рипа

Exact Audio Copy V1.0 beta 3 from 29. August 2011
EAC extraction logfile from 4. May 2012, 15:23
Kova & Co / Saxing For Sailing
Used drive : ATAPI DVD A DH20A4P Adapter: 2 ID: 0
Read mode : SecureUtilize accurate stream : YesDefeat audio cache : YesMake use of C2 pointers : No
Read offset correction : 6Overread into Lead-In and Lead-Out : NoFill up missing offset samples with silence : YesDelete leading and trailing silent blocks : NoNull samples used in CRC calculations : YesUsed interface : Native Win32 interface for Win NT & 2000Gap handling : Appended to previous track
Used output format : User Defined EncoderSelected bitrate : 896 kBit/sQuality : HighAdd ID3 tag : NoCommand line compressor : C:\Program Files\Exact Audio Copy\FLAC\FLAC.EXEAdditional command line options : -V -8 -T "Genre=%genre%" -T "Artist=%artist%" -T "Title=%title%" -T "Album=%albumtitle%" -T "Date=%year%" -T "Tracknumber=%tracknr%" -T "Comment=%comment%" %source%
TOC of the extracted CD
Track | Start | Length | Start sector | End sector --------------------------------------------------------- 1 | 0:00.00 | 6:23.42 | 0 | 28766 2 | 6:23.42 | 6:41.36 | 28767 | 58877 3 | 13:05.03 | 7:49.50 | 58878 | 94102 4 | 20:54.53 | 5:25.11 | 94103 | 118488 5 | 26:19.64 | 7:33.36 | 118489 | 152499 6 | 33:53.25 | 7:51.10 | 152500 | 187834 7 | 41:44.35 | 6:00.44 | 187835 | 214878
Track 1
Filename D:\Music\Jazz\Kova & Co - Saxing For Sailing\01 Stormy Weather.wav
Pre-gap length 0:00:02.00
Peak level 96.6 % Extraction speed 2.2 X Track quality 100.0 % Test CRC 31B0A7D7 Copy CRC 31B0A7D7 Track not present in AccurateRip database Copy OK
Track 2
Filename D:\Music\Jazz\Kova & Co - Saxing For Sailing\02 Give Me A Rope.wav
Pre-gap length 0:00:00.52
Peak level 96.6 % Extraction speed 2.5 X Track quality 100.0 % Test CRC 2174AACE Copy CRC 2174AACE Track not present in AccurateRip database Copy OK
Track 3
Filename D:\Music\Jazz\Kova & Co - Saxing For Sailing\03 NMW.wav
Pre-gap length 0:00:00.54
Peak level 96.5 % Extraction speed 2.8 X Track quality 100.0 % Test CRC 421ACF8F Copy CRC 421ACF8F Track not present in AccurateRip database Copy OK
Track 4
Filename D:\Music\Jazz\Kova & Co - Saxing For Sailing\04 Aqua di Salgada.wav
Peak level 94.5 % Extraction speed 3.0 X Track quality 100.0 % Test CRC 215EB649 Copy CRC 215EB649 Track not present in AccurateRip database Copy OK
Track 5
Filename D:\Music\Jazz\Kova & Co - Saxing For Sailing\05 Spring.wav
Pre-gap length 0:00:00.13
Peak level 96.5 % Extraction speed 2.8 X Track quality 99.9 % Test CRC FB899F75 Copy CRC FB899F75 Track not present in AccurateRip database Copy OK
Track 6
Filename D:\Music\Jazz\Kova & Co - Saxing For Sailing\06 Aladin.wav
Pre-gap length 0:00:00.54
Peak level 96.6 % Extraction speed 3.0 X Track quality 99.9 % Test CRC EC30FE87 Copy CRC EC30FE87 Track not present in AccurateRip database Copy OK
Track 7
Filename D:\Music\Jazz\Kova & Co - Saxing For Sailing\07 Blue Sky.wav
Pre-gap length 0:00:00.53
Peak level 96.6 % Extraction speed 3.6 X Track quality 100.0 % Test CRC DCED1286 Copy CRC DCED1286 Track not present in AccurateRip database Copy OK
None of the tracks are present in the AccurateRip database
No errors occurred
End of status report
==== Log checksum 423E371DF310F138D4B88E923C0BF187D5AA5738F7B0D87B923D9F38CE96AAB7 ====

Содержание индексной карты (.CUE)

REM GENRE FusionREM DATE 2008REM DISCID 5C0B3107REM COMMENT "ExactAudioCopy v1.0b3"PERFORMER "Kova & Co"TITLE "Saxing For Sailing"FILE "01 Stormy Weather.wav" WAVE TRACK 01 AUDIO TITLE "Stormy Weather" PERFORMER "Kova & Co" ISRC 000000000000 INDEX 01 00:00:00 TRACK 02 AUDIO TITLE "Give Me A Rope" PERFORMER "Kova & Co" ISRC 000000000000 INDEX 00 06:22:65FILE "02 Give Me A Rope.wav" WAVE INDEX 01 00:00:00 TRACK 03 AUDIO TITLE "NMW" PERFORMER "Kova & Co" ISRC 000000000000 INDEX 00 06:40:57FILE "03 NMW.wav" WAVE INDEX 01 00:00:00FILE "04 Aqua di Salgada.wav" WAVE TRACK 04 AUDIO TITLE "Aqua di Salgada" PERFORMER "Kova & Co" ISRC 000000000000 INDEX 01 00:00:00 TRACK 05 AUDIO TITLE "Spring" PERFORMER "Kova & Co" ISRC 000000000000 INDEX 00 05:24:73FILE "05 Spring.wav" WAVE INDEX 01 00:00:00 TRACK 06 AUDIO TITLE "Aladin" PERFORMER "Kova & Co" ISRC 000000000000 INDEX 00 07:32:57FILE "06 Aladin.wav" WAVE INDEX 01 00:00:00 TRACK 07 AUDIO TITLE "Blue Sky" PERFORMER "Kova & Co" ISRC 000000000000 INDEX 00 07:50:32FILE "07 Blue Sky.wav" WAVE INDEX 01 00:00:00

Об альбоме (сборнике)

Saxing For Sailing
(Željko Kovačević)
Tenor i sopran saksofonist i klarinetist Željko Kovačević dugogodišnji je stalni član i solist Big banda HRT-a. No, godinama vodi i vlastite skupine raznih podžanrova jazza. Produktivan je i na diskografskom području, posebice u duu Modo Novo u kojemu svira s klaviristom Igorom Savinom, a dosad su snimili četiri kompaktna diska. Nedugo je objavio treći album sa skupinom Kova & Co., iako u izmijenjenoj postavi. Međutim, Kova & Co. nije zaštitni znak njegove suradnje s određenim glazbenicima, nego znak pripadnosti određenim žanrovskim odrednicama, potpuno drukčijima od onih koje ostvaruje sa svojim ansamblom Dixieland, fusion skupinom Toranj 77 ili duom Modo Novo s kojim svira jazzističke ili crossover obrade duhovne i narodne glazbe. Naime, Kovačević prati nove trendove na svjetskoj glazbenoj sceni, tako da i ovaj album obiluje suvremenim ritmovima i elektroničkim, računalno obrađenim zvukovima. Snimio ga je u vlastitoj produkciji u suradnji s klavijaturistom Marinom Hraščanecom i programerom Hrvojem Galekovićem, s kojima ostvaruje glazbu stilski dopadljivu širem krugu slušatelja. Taj je potencijal zapazila i tvrtka Volvo koja ga je poduprla te koristi CD za vlastitu promidžbu. Radi se o svojevrsnom smooth jazzu zasnovanom na klupskim ritmovima, jednostavnim melodijama i improvizacijama primjerenima žanru. Kovačević je autor svih skladbi, a njihovi naslovi, Stormy Weather, Give Me a Rope, NNW, Aqua di Salgada, Spring, Aladin i Blue Sky, kao i naslov izdanja, asociraju na nadahnuće koje ih je obilježilo. Naime, osim uspješne glazbene karijere Kovačević je, kao strastveni jedriličar, sa svojim Kova Sailing Teamom ostvario i zapažene natjecateljske rezultate, stoga ne čudi što je album posvetio moru, brodu i jedrenju.
Zeljko Kovacevic- clarinettist, saxophonist, composer (Zagreb, 18. march 1954.). Graduated in clarinet studies at the Music academy and in geography at the Academy of Nature and maths. He is consistently running few groups with different music styles: TOWER77, KOVA&co (fusion), MODO NOVO (sacral, classic, world music), CROATIAN SAXEX (folk composing), CUTE (swing) and the ZAGREBAKI DIXIELAND ANSAMBL. In all these he stands out as a remarkable composer, clarinettist and a saxophonist. He was granted a scolarship at the Goethe institute and there participated in the first jazz workshop in Zagreb as well as in Burghausen where he collaborated with the european music youth. He is one of the founders of The Big-band, the orchestra of the Croatian Music institute (HGZ). eljko participated in numerous international jazz festivals. As a soloist he performed on the Caribbean islands, in Brazil, Togo and throughout Europe. Since 1968. he plays at the Big-band of HRT. Orchestral compositions: Nemir me nosi, Stop, Zaborav, Ispod plave kronje, Pre shave, Prvom gradu, Uspomena, Pjevaj mi sokole, Blues za tebe, Kad se svjetlo gasi, Miriam and others. Fusion: Hanuma, Wo ist hausmeister ,Mi, Imitacija, Mitting77, Alem, Majka Ljerki kose plete, Dim, Surprise, HU-hu, Aladin, Factory. Classical: 4 za 3, Suitacroatica Entertainment: Babby sitter, Studentica, Gospa, Betula, Petrica and others. Discography: 1.KOVA&co Pre shave 2.KOVA&co Shave 3.CUTE 4.CUTE play Gershwin 5.MODO NOVO Musica sacra antiqua croatorum 6.MODO NOVO Live in Dubrovnik 7.MODO NOVO Music of Eric Satie 8.MODO NOVO Christus natus est hodie
Autor: Davor Hrvoj

Состав

Željko Kovačević - sax, clarinet
Marin Hraščanec - piano
Hrvoje Galeković - programming


[geo-torrent.biz]_t_4048772.torrent
Torrent: Registered ·  [ 2019-05-05 19:11 ] ·  597a5355760543053ec0fe0d1e8b775d435d25c8

13 KB

Status: checked
Completed: 0 times
Size: 303 MB
Rating: 
(Votes: 0)
Say thanks: 0  Thanks
Похожие темы
[Profile]    [PM]
Display posts from previous:    
Reply to topic

The time now is: Today 02:16

All times are GMT + 7 Hours



You cannot post new topics in this forum
You cannot reply to topics in this forum
You cannot edit your posts in this forum
You cannot delete your posts in this forum
You cannot vote in polls in this forum
You cannot attach files in this forum
You can download files in this forum