(Synth-Pop/Disco/New Beat) [CD] Silicon Dream - Time Machine [Carrere, France] © 1988, FLAC (image+.cue), lossless

Reply to topic
DL-List and Torrent activity [Update пиров]
Size:  485 MB   |    Registered:  5 months 6 days   |    Completed:  0 times

Seeder not seen: Never

 
   
 
 
 
Author Message

SVP

Post 07-May-2019 10:24

[Quote]

Silicon Dream / Time Machine
(real name: Klaus Munzert)
Жанр: Synth-Pop/Disco/New Beat
Носитель: CD
Страна-производитель диска (релиза): France
Год издания: 1988
Издатель (лейбл): Carrere
Номер по каталогу: 96.583
Страна исполнителя (группы): Germany
Аудиокодек: FLAC (*.flac)
Тип рипа: image+.cue
Продолжительность: 1:06:19
Источник: собственный рип (discofan74)
Наличие сканов в содержимом раздачи: да
Треклист:
01. Time Machine (You Are The Master Of Time Age) 5:58
02. Jimmy Dean Loved Marilyn - Film Ab (The Hollywood Age) 3:39 http://www.youtube.com/watch?v=zCNAgAKDIHg
03. Corleone Speaking (The Chicago Age) 4:48
04. Holiday In St. Tropez - Eating Pizza In Ibiza (The Cola Age) 4:20
05. Marcello The Mastroianni (The Fellini Age) 4:29
06. Space Intro (The Age Of The First Cosmic Steps) 1:14
07. Andromeda (The Space Age) 4:58 http://www.youtube.com/watch?v=qBrjysAxwo0
08. Albert Einstein Everything Is Relative (The Age Of The Inventors) 4:26 http://www.youtube.com/watch?v=xYA0pkcYIfg
09. Primaballerina (The Romantic Age) 4:52
10. Don't Break My Heart (The Age Of Love) 4:17
CD bonus tracks:
11. Marcello The Mastroianni (Monster Mix) 7:45
12. Albert Einstein Everything Is Relative (Russian Mix) 7:06
13. Jimmy Dean Loved Marilyn - Film Ab (Mix Cinemascope) 8:15
Produced by Klaus Munzert
(c) 1988 Intercord Ton GmbH.
(c) 02/2017 CDRip & scans by discofan74 for
Лог создания рипа
Из-за мелкой ошибки в конце 13-го трека EAC-ом снять не получилось

Содержание индексной карты (.CUE)

REM GENRE SynthpopREM DATE 1988REM DISCID A70F8C0DREM COMMENT "ExactAudioCopy v1.0b4"PERFORMER "Silicon Dream"TITLE "Time Machine"FILE "Silicon Dream - Time Machine [Carrere].flac" WAVE TRACK 01 AUDIO TITLE "Time Machine" PERFORMER "Silicon Dream" INDEX 00 00:00:00 INDEX 01 00:00:33 TRACK 02 AUDIO TITLE "Jimmy Dean Loved Marilyn (Film AB)" PERFORMER "Silicon Dream" INDEX 00 05:59:73 INDEX 01 06:00:18 TRACK 03 AUDIO TITLE "Corleone Speaking" PERFORMER "Silicon Dream" INDEX 00 09:39:15 INDEX 01 09:39:68 TRACK 04 AUDIO TITLE "Holiday In St. Tropez - Eating Pizza In Ibiza" PERFORMER "Silicon Dream" INDEX 00 14:27:43 INDEX 01 14:28:53 TRACK 05 AUDIO TITLE "Marcello The Mastroianni" PERFORMER "Silicon Dream" INDEX 00 18:48:25 INDEX 01 18:49:18 TRACK 06 AUDIO TITLE "Space Intro" PERFORMER "Silicon Dream" INDEX 00 23:19:25 INDEX 01 23:20:48 TRACK 07 AUDIO TITLE "Andromeda" PERFORMER "Silicon Dream" INDEX 00 24:34:35 INDEX 01 24:34:50 TRACK 08 AUDIO TITLE "Albert Einstein - Everything Is Relative" PERFORMER "Silicon Dream" INDEX 00 29:32:10 INDEX 01 29:33:68 TRACK 09 AUDIO TITLE "Primaballerina" PERFORMER "Silicon Dream" INDEX 00 34:00:30 INDEX 01 34:01:08 TRACK 10 AUDIO TITLE "Don't Break My Heart" PERFORMER "Silicon Dream" INDEX 00 38:53:08 INDEX 01 38:54:15 TRACK 11 AUDIO TITLE "Marcello The Mastroianni (Monster Mix)" PERFORMER "Silicon Dream" INDEX 00 43:11:60 INDEX 01 43:12:35 TRACK 12 AUDIO TITLE "Albert Einstein - Everything Is Relative (Russian Mix)" PERFORMER "Silicon Dream" INDEX 00 50:58:13 INDEX 01 50:58:28 TRACK 13 AUDIO TITLE "Jimmy Dean Loved Marilyn (Film AB) (Mix Cinemascope)" PERFORMER "Silicon Dream" INDEX 00 58:04:48 INDEX 01 58:05:18

Скриншот спектра частот

Доп. информация: Французское CD-издание 1го альбома.


[geo-torrent.biz]_t_5728644.torrent
Torrent: Registered ·  [ 2019-05-07 10:24 ] ·  3831371e5dc0686fba39701b9fb68fd1dd06b388

20 KB

Status: checked
Completed: 0 times
Size: 485 MB
Rating: 
(Votes: 0)
Say thanks: 0  Thanks
Похожие темы
[Profile]    [PM]
Display posts from previous:    
Reply to topic

The time now is: Today 03:21

All times are GMT + 7 Hours



You cannot post new topics in this forum
You cannot reply to topics in this forum
You cannot edit your posts in this forum
You cannot delete your posts in this forum
You cannot vote in polls in this forum
You cannot attach files in this forum
You can download files in this forum