[TR24][OF] Avicii - TIM - 2019 (House, Electronic, Progressive House, Electro House)

Reply to topic
DL-List and Torrent activity [Update пиров]
Size:  460 MB   |    Registered:  3 months 21 day   |    Completed:  3 times

Seeder not seen: 4 days

 
   
 
 
 
Author Message

Кейт

Post 22-Jun-2019 14:25

[Quote]

Avicii / TIM
Формат файла записи/Источник записи: [TR24][OF]
Год издания/переиздания диска: 2019
Жанр: House, Electronic, Progressive House, Electro House
Издатель (лейбл): Universal Music AB
Продолжительность: 00:39:01
Наличие сканов в содержимом раздачи: Только обложка альбома
Треклист:
01. Peace Of Mind (feat. Vargas & Lagola)
02. Heaven
03. SOS (feat. Aloe Blacc)
04. Tough Love (feat. Agnes & Vargas & Lagola)
05. Bad Reputation (feat. Joe Janiak)
06. Ain't A Thing (feat. Bonn)
07. Freak (feat. Bonn)
08. Freak (feat. Bonn)
09. Excuse Me Mr Sir (feat. Vargas & Lagola)
10. Heart Upon My Sleeve (feat. Imagine Dragons)
11. Never Leave Me (feat. Joe Janiak)
12. Fades Away (feat. Noonie Bao)
Формат файла: FLAC (*.flac)
Тип рипа: tracks
Разрядность: 24/44,1
Формат файла: PCM
Количество каналов: 2.0

Лог проверки качества

foobar2000 1.3.16 / Dynamic Range Meter 1.1.1log date: 2019-06-08 02:59:47
--------------------------------------------------------------------------------Analyzed: Avicii / TIM--------------------------------------------------------------------------------
DR Peak RMS Duration Track--------------------------------------------------------------------------------DR5 -0.46 dB -9.14 dB 3:00 01-Peace Of MindDR5 -0.46 dB -7.71 dB 4:37 02-HeavenDR5 -0.46 dB -9.13 dB 2:37 03-SOSDR5 -0.46 dB -7.93 dB 3:11 04-Tough LoveDR5 -0.46 dB -8.56 dB 3:25 05-Bad ReputationDR6 -0.46 dB -9.39 dB 3:04 06-Ain't A ThingDR6 -0.46 dB -8.12 dB 2:52 07-Hold The LineDR5 -0.46 dB -8.34 dB 2:59 08-FreakDR5 -0.46 dB -8.41 dB 3:08 09-Excuse Me Mr SirDR5 -0.46 dB -8.48 dB 4:14 10-Heart Upon My SleeveDR5 -0.46 dB -8.07 dB 2:52 11-Never Leave MeDR5 -0.46 dB -9.30 dB 2:59 12-Fades Away--------------------------------------------------------------------------------
Number of tracks: 12Official DR value: DR5
Samplerate: 44100 HzChannels: 2Bits per sample: 24Bitrate: 1534 kbpsCodec: FLAC================================================================================
Источник (релизер): Qobuz


[geo-torrent.biz]_t_5747090.torrent
Torrent: Registered ·  [ 2019-06-22 14:25 ] ·  33caa82a9ac661cb4b5235527c7cc00fe8b7c83e

19 KB

Status: checked
Completed: 3 times
Size: 460 MB
Rating: 
(Votes: 0)
Say thanks: 0  Thanks
Похожие темы
[Profile]    [PM]
Display posts from previous:    
Reply to topic

The time now is: Today 03:48

All times are GMT + 7 Hours



You cannot post new topics in this forum
You cannot reply to topics in this forum
You cannot edit your posts in this forum
You cannot delete your posts in this forum
You cannot vote in polls in this forum
You cannot attach files in this forum
You can download files in this forum