Девять месяцев / Nine Months (Крис Коламбус / Chris Columbus) [1995, США, комедия, мелодрама, BDRip] Dub (SDI Media) + Original Eng

Reply to topic
DL-List and Torrent activity [Update пиров]
Size:  1.46 GB   |    Registered:  2 months 23 days   |    Completed:  0 times

Seeder not seen: Never

 
   
 
 
 
Author Message

Кейт

Post 13-Jan-2020 23:20

[Quote]

Девять месяцев / Nine Months
«Ready or Not»
Страна: США
Жанр: комедия, мелодрама
Год выхода: 1995
Продолжительность: 01:43:18
Перевод: Профессиональный (дублированный) - SDI Media
Субтитры: нет
Оригинальная аудиодорожка: английская
Режиссер: Крис Коламбус / Chris Columbus
В ролях: Хью Грант, Джулианна Мур, Том Арнольд, Джоан Кьюсак, Джефф Голдблюм, Робин Уильямс, Миа Коттет, Джои Симмрин, Эшли Джонсон, Алекса ПенаВега.
Описание: Молодая счастливая пара из Сан-Франциско — детский психотерапевт Сэмуэл и учительница танцев Ребекка вместе уже пять лет. Ребекка, как всякая нормальная женщина, мечтает о ребенке. Сэмуэл же боится перемен. Начинается отсчет девяти месяцев беременности.
Друг Сэмуэля, художник-неудачник, расстался с своей любимой, потому что не хотел иметь детей. Он говорит, что неожиданная беременность — нож в спину мужчины, и на это способны только низкие и подлые женщины. Между влюбленными начинаются ссоры, потому что необходимо искать большую квартиру, большую машину, избавиться от кота.
И Ребекка решает, что уйдет от Сэмуэла, если тот не смирится с мыслью о ребенке.

Доп. информация: Благодарность за BDRip адресуется [url=profile.php?mode=viewprofile&u=8607549]agc0707[/url]
Запись с телеканала "ViP Megahit" перевода компании «SDI Media» - [url=profile.php?mode=viewprofile&u=26471559]Sonntag204[/url], спасибо!
Синхронизация звука - [url=profile.php?mode=viewprofile&u=12431118]Arle-kino[/url]

Качество видео: BDRip
Формат файла: AVI
Видео: 720x304 (2.37:1), 23.976 fps, XviD build 64 ~1627 kbps avg, 0.31 bit/pixel
Аудио 1: 48 kHz, AC3 Dolby Digital, 2/0 (L,R) ch, ~192 kbps - Rus
Аудио 2: 48 kHz, AC3 Dolby Digital, 2/0 (L,R) ch, ~192 kbps - Eng

MediaInfo

GeneralComplete name : D:\Public\Nine Months [1995] BDRip (Rus - 'SDI Media' & Eng).aviFormat : AVIFormat/Info : Audio Video InterleaveFile size : 1.46 GiBDuration : 1 h 43 minOverall bit rate : 2 026 kb/sMovie name : Nine MonthsDirector : Chris ColumbusGenre : Comedy/RomanceWriting application : VirtualDubMod 1.5.10.2 (build 2540/release)Original source form/Name : Movie
VideoID : 0Format : MPEG-4 VisualFormat profile : Advanced Simple@L5Format settings, BVOP : 1Format settings, QPel : NoFormat settings, GMC : No warppointsFormat settings, Matrix : CustomCodec ID : XVIDCodec ID/Hint : XviDDuration : 1 h 43 minBit rate : 1 628 kb/sWidth : 720 pixelsHeight : 304 pixelsDisplay aspect ratio : 2.35:1Frame rate : 23.976 (24000/1001) FPSColor space : YUVChroma subsampling : 4:2:0Bit depth : 8 bitsScan type : ProgressiveCompression mode : LossyBits/(Pixel*Frame) : 0.310Stream size : 1.17 GiB (80%)Writing library : XviD 64
Audio #1ID : 1Format : AC-3Format/Info : Audio Coding 3Format settings, Endianness : BigCodec ID : 2000Duration : 1 h 43 minBit rate mode : ConstantBit rate : 192 kb/sChannel(s) : 2 channelsChannel positions : Front: L RSampling rate : 48.0 kHzFrame rate : 31.250 FPS (1536 SPF)Bit depth : 16 bitsCompression mode : LossyStream size : 142 MiB (9%)Alignment : Split accross interleavesInterleave, duration : 42 ms (1.00 video frame)Interleave, preload duratio : 500 msTitle : RusService kind : Complete Main
Audio #2ID : 2Format : AC-3Format/Info : Audio Coding 3Format settings, Endianness : BigCodec ID : 2000Duration : 1 h 43 minBit rate mode : ConstantBit rate : 192 kb/sChannel(s) : 2 channelsChannel positions : Front: L RSampling rate : 48.0 kHzFrame rate : 31.250 FPS (1536 SPF)Bit depth : 16 bitsCompression mode : LossyStream size : 142 MiB (9%)Alignment : Split accross interleavesInterleave, duration : 42 ms (1.00 video frame)Interleave, preload duratio : 500 msTitle : EngService kind : Complete Main

Скриншот c названием фильма

Скриншоты



[geo-torrent.biz]_t_5834669.torrent
Torrent: Registered ·  [ 2020-01-13 23:20 ] ·  c268ce4ec6ff0f05436f9beedadc9e7566842841

15 KB

Status: checked
Completed: 0 times
Size: 1.46 GB
Rating: 
(Votes: 0)
Say thanks: 0  Thanks
Похожие темы
[Profile]    [PM]
Display posts from previous:    
Reply to topic

The time now is: Today 02:42

All times are GMT + 7 Hours



You cannot post new topics in this forum
You cannot reply to topics in this forum
You cannot edit your posts in this forum
You cannot delete your posts in this forum
You cannot vote in polls in this forum
You cannot attach files in this forum
You can download files in this forum