Утиные Истории / DuckTales / Duck Tales / Сезон: 1 / Серии: 001,018,022-028 из 100 (Девид Блок / David Block) [1987-1990, Анимация, комедия, VHSRip] [ОРТ] DUB

Reply to topic
DL-List and Torrent activity [Update пиров]
Size:  12.86 GB   |    Registered:  2 years 7 months   |    Completed:  0 times

Seeder not seen: Never

 
   
 
 
 
Author Message

Пушистый

Post 12-Mar-2017 13:02

[Quote]

-Утиные Истории / Duck Tales- Английское название: Duck Tales
Русское название: Утиные Истории
Год выхода: 1987-1990
Страна: США.
Жанр: Анимация, комедия.
Продолжительность: ТВ (100 эп.), ~ 23 минуты
Перевод: Профессиональный (Полное Дублирование) ТЦ Останкино
Субтитры: Нет-Режиссёр: Девид Блок / David Block
Описание: Утиные истории» — телевизионный мультсериал, созданный компанией Уолта Диснея. В нём рассказывается о приключениях уток из комиксов и историй знаменитого Карла Баркса. Это был самый успешный мультсериал компании Walt Disney и до сих пор является лидером среди всех сериалов этой компании. Было задумано сделать качественный мультсериал, поэтому в создание "Утиных историй" были вложены огромные деньги, не смотря на то, что создание такого проекта было довольно рискованным делом. Главными героями мультсериала являются переработанные классические диснеевские персонажи: Скрудж Макдак (Scrooge McDuck) и его племянники — Билли (Хьюи), Вилли (Дьюи) и Дилли (Луи). Данный сериал был вторым в своём роде (первым мультсериалом был «Приключения мишек Гамми») и впоследствии открыл дорогу другим сериалам Диснея. Позже был также снят другой сериал в той же вселенной — «Чёрный Плащ» и "Кряк-бряк". Данный мультсериал является обладателем 3-х премий Эмми, а также вошёл в 2009 году в TOP100 лучших мультсериалов мира и занял 18 позицию (1 среди сериалов Дисней) по версии IGN, также его главный персонаж Скрудж Макдак стал почётным вымышленным гражданином Шотландии в 2007 году, а в 2008 стал самым богатым вымышленным персонажем в мире (в 2010 стал вторым, уступив дядюшке Сэму).-: ALEKS KV-Над релизом работали:
ALEKS KV .......Предоставил кассеты, оцифровка
[url=search.php?f=1245&nm=%F3%F2%E8%ED%FB%E5+%E8%F1%F2%EE%F0%E8%E8]Ссылка на остальные раздачи[/url]
Доп. Информация:
Запись с канала ОРТ 1998,2000 годов. Раритет для коллекционеров. Выкладывается по просьбе трудящихся.
В первой серии присутствует заставка "Дисней Новости", а так же сами новости.
Сэмпл
Качество: VHSRip
Формат файла: MPEG2
Формат файла: MPG
Аудио кодек: MP2
Видео: MPEG2 Video 720x576 (4:3) 25.00fps 9500Kbps
Аудио:
  • русская: MPEG Layer 2 48000Hz stereo 256Kbps [Дубляж "ТЦ Останкино"]

-

Наличие серий в раздаче

001. Не сдавать корабль!
018. Герой по найму
022. Загадки Бермудского Треугольника
023. Лошадкины Штучки
024. Проклятье замка МакДак
025. Оборотни
026. Супер Пупс
(Не до конца)
027. Отель "Стрэндж Дак"
028. Решающая битва Зигзага
(Чуть-чуть не сначала)

Подробные технические данные

GeneralComplete name : X:\XXXXXXXXXX\Duck Tales 024.mpgFormat : MPEG-PSFile size : 1.54 GiBDuration : 22mn 15sOverall bit rate mode : VariableOverall bit rate : 9 909 KbpsWriting library : (c) 1998-2007 Womble Multimedia, Inc. / MPEG Video Wizard (12/2007) / Mar 31 2008
VideoID : 224 (0xE0)Format : MPEG VideoFormat version : Version 2Format profile : Main@MainFormat settings, BVOP : YesFormat settings, Matrix : CustomFormat settings, GOP : VariableDuration : 22mn 15sBit rate mode : VariableBit rate : 9 500 KbpsWidth : 720 pixelsHeight : 576 pixelsDisplay aspect ratio : 4:3Frame rate : 25.000 fpsStandard : PALColor space : YUVChroma subsampling : 4:2:0Bit depth : 8 bitsScan type : InterlacedScan order : Top Field FirstCompression mode : LossyBits/(Pixel*Frame) : 0.916Time code of first frame : 00:00:00:00Time code source : Group of pictures headerStream size : 1.47 GiB (95%)Writing library : (c) 1998-2007 Womble Multimedia, Inc. / MPEG Video Wizard (12/2007) / Mar 31 2008
AudioID : 192 (0xC0)Format : MPEG AudioFormat version : Version 1Format profile : Layer 2Duration : 22mn 15sBit rate mode : ConstantBit rate : 256 KbpsChannel(s) : 2 channelsSampling rate : 48.0 KHzCompression mode : LossyDelay relative to video : -80msStream size : 40.8 MiB (3%)

Скриншоты



[geo-torrent.biz]_t_4523037.torrent
Torrent: Registered ·  [ 2017-03-12 13:00 ] ·  a9eb9f0e72e03cb68bc0f9ba67772d2c462c9f8d

65 KB

Status: checked
Completed: 0 times
Size: 12.86 GB
Rating: 
(Votes: 0)
Say thanks: 0  Thanks
Похожие темы
[Profile]    [PM]
Display posts from previous:    
Reply to topic

The time now is: Today 17:17

All times are GMT + 7 Hours



You cannot post new topics in this forum
You cannot reply to topics in this forum
You cannot edit your posts in this forum
You cannot delete your posts in this forum
You cannot vote in polls in this forum
You cannot attach files in this forum
You can download files in this forum